<?xml version="1.0" standalone="no"?>
<!DOCTYPE svg PUBLIC "-//W3C//DTD SVG 1.1//EN" "http://www.w3.org/Graphics/SVG/1.1/DTD/svg11.dtd" >
<svg xmlns="http://www.w3.org/2000/svg" xmlns:xlink="http://www.w3.org/1999/xlink" version="1.1">
<metadata>
Created by FontForge 20201107 at Fri Apr 17 04:01:46 2020
 By Unknown
[Kosugi Maru]
      Copyright(c)2010 MOTOYA CO.,LTD.            

      [Varela Round]
      Copyright 2011-2016 The Varela Round Project Authors (https://github.com/alefalefalef/Varela-Round-Hebrew/), with Reserved Font Names 'Varela' and 'Varela Round'.            

      [jf open huninn]
      2020(c)The jf open huninn font is redistributed by justfont CO.,LTD, with Reserved Font Names 'open huninn' and 'huninn'. under SIL Open Font License. The Hanzi part of this project was derived from Kosugi Maru under Apache-2.0 (https://www.apache.org/licenses/LICENSE-2.0).
</metadata>
<defs>
<font id="jf-openhuninn-1.1" horiz-adv-x="1024" vert-adv-y="1024" >
  <font-face 
    font-family="jf-openhuninn-1.1"
    font-weight="400"
    font-stretch="normal"
    units-per-em="1024"
    panose-1="2 15 5 0 0 0 0 0 0 0"
    ascent="871"
    descent="-153"
    x-height="511.002"
    cap-height="725"
    bbox="-441.999 -287 1314 1026"
    underline-thickness="50"
    underline-position="-100"
    unicode-range="U+0020-30E6C"
  />
<missing-glyph horiz-adv-x="600" 
 />
    <glyph glyph-name="fi" unicode="fi" horiz-adv-x="637" 
d="M129.5 7.5c-9 9 -13.501 19.833 -13.501 32.5v391h-58c-10.667 0 -20 4 -28 12s-12 17.333 -12 28c0 11.333 4 20.833 12 28.5s17.333 11.5 28 11.5h58v57c0 40.667 7.33301 73.667 22 99c13.333 24.667 31.5 43.167 54.5 55.5s47.833 18.5 74.5 18.5
c30 0 59 -6.66699 87 -20c16 -9.33301 24 -21.333 24 -36c0 -10 -3.83301 -19 -11.5 -27s-16.5 -12 -26.5 -12c-7.33301 0 -15 1 -23 3l-27 3c-29.333 0 -50.166 -6.66699 -62.499 -20s-18.5 -35.666 -18.5 -66.999v-54h306c12.667 -1.33301 23.167 -6.33301 31.5 -15
s12.5 -19.334 12.5 -32.001v-424c0 -12.667 -4.66699 -23.5 -14 -32.5s-20.333 -13.5 -33 -13.5s-23.5 4.5 -32.5 13.5s-13.5 19.833 -13.5 32.5v391h-257v-391c0 -12.667 -4.66699 -23.5 -14 -32.5s-20.333 -13.5 -33 -13.5s-23.5 4.5 -32.5 13.5zM473.499 628.5
c-10.333 10.333 -15.5 22.5 -15.5 36.5v4c0 14 5.16699 26.167 15.5 36.5s22.5 15.5 36.5 15.5h6c14 0 26.167 -5.16699 36.5 -15.5s15.5 -22.5 15.5 -36.5v-4c0 -14 -5.16699 -26.167 -15.5 -36.5s-22.5 -15.5 -36.5 -15.5h-6c-14 0 -26.167 5.16699 -36.5 15.5z" />
    <glyph glyph-name="fl" unicode="fl" horiz-adv-x="636" 
d="M129.5 7.5c-9 9 -13.501 19.832 -13.501 32.499v391h-58c-10.667 0 -20 4 -28 12s-12 17.333 -12 28c0 11.333 4 20.833 12 28.5s17.333 11.5 28 11.5h58v57c0 40.667 7.33301 73.667 22 99c13.333 24.667 31.5 43.167 54.5 55.5s47.833 18.5 74.5 18.5
c30 0 59 -6.66699 87 -20c16 -9.33301 24 -21.333 24 -36c0 -10 -3.83301 -19 -11.5 -27s-16.5 -12 -26.5 -12c-7.33301 0 -15 1 -23 3l-27 3c-29.333 0 -50.166 -6.66699 -62.499 -20s-18.5 -35.666 -18.5 -66.999v-54h124c11.333 0 20.833 -3.83301 28.5 -11.5
s11.5 -17.167 11.5 -28.5c0 -10.667 -3.83301 -20 -11.5 -28s-17.167 -12 -28.5 -12h-124v-391c0 -12.667 -4.66699 -23.5 -14 -32.5s-20.333 -13.5 -33 -13.5s-23.5 4.5 -32.5 13.5zM478.499 7.49902c-9 9 -13.5 19.833 -13.5 32.5v649c0 12.667 4.5 23.667 13.5 33
s19.833 14 32.5 14c13.333 0 24.5 -4.5 33.5 -13.5s13.5 -20.167 13.5 -33.5v-649c0 -12.667 -4.66699 -23.5 -14 -32.5s-20.333 -13.5 -33 -13.5s-23.5 4.5 -32.5 13.5z" />
    <glyph glyph-name="uni0041_uni030B.liga" unicode="A&#x30b;" horiz-adv-x="746" 
d="M283 759c-5.33301 4.66699 -8 10.999 -8 18.999c0 4 0.333008 6.66699 1 8l27 90c2.66699 10 7.66699 17.833 15 23.5s15.333 8.5 24 8.5c10 0 18.5 -3.16699 25.5 -9.5s10.5 -14.5 10.5 -24.5c0 -7.33301 -2.33301 -15.666 -7 -24.999l-41 -79
c-6.66699 -12 -15.667 -18 -27 -18c-8 0 -14.667 2.33301 -20 7zM399 758.999c-5.33301 4.66699 -8 10.999 -8 18.999c0 4 0.333008 6.66699 1 8l27 90c2.66699 10 7.66699 17.833 15 23.5s15.333 8.5 24 8.5c10 0 18.5 -3.16699 25.5 -9.5s10.5 -14.5 10.5 -24.5
c0 -7.33301 -2.33301 -15.666 -7 -24.999l-41 -79c-6.66699 -12 -15.667 -18 -27 -18c-8 0 -14.667 2.33301 -20 7zM62 7.49805c-8.66699 9 -13 19.833 -13 32.5c0 4.66699 1.66699 11.334 5 20.001l255 602c6 13.333 14 23.666 24 30.999s21.667 11 35 11h10
c13.333 0 25 -3.66699 35 -11s18 -17.666 24 -30.999l255 -602c3.33301 -8.66699 5 -15.334 5 -20.001c0 -12.667 -4.33301 -23.5 -13 -32.5s-19.667 -13.5 -33 -13.5c-10 0 -18.833 2.5 -26.5 7.5s-13.5 12.167 -17.5 21.5l-65 155h-338l-65 -155
c-4 -9.33301 -9.83301 -16.5 -17.5 -21.5s-16.5 -7.5 -26.5 -7.5c-13.333 0 -24.333 4.5 -33 13.5zM373 572.998c-3.33301 0 -6 -2.33301 -8 -7l-126 -303h268l-126 303c-2 4.66699 -4.66699 7 -8 7z" />
    <glyph glyph-name="A_tildecomb.liga" unicode="A&#x303;" horiz-adv-x="746" 
d="M227.5 753c-5 4.66699 -7.49609 10.3359 -7.49609 17.0029c0 23.333 8.33301 45.166 25 65.499s36.667 30.5 60 30.5c12.667 0 24.667 -1.83301 36 -5.5s26 -9.83398 44 -18.501c17.333 -8.66699 31.166 -14.667 41.499 -18s21.166 -5 32.499 -5
c8.66699 0 15.834 2 21.501 6s10.5 10.667 14.5 20c5.33301 14.667 14 22 26 22c6.66699 0 12.167 -2.16699 16.5 -6.5s6.83301 -9.83301 7.5 -16.5c0 -24.667 -8.33301 -46.834 -25 -66.501s-36.667 -29.5 -60 -29.5c-12.667 0 -24.334 1.83301 -35.001 5.5
s-26.334 10.167 -47.001 19.5c-17.333 8.66699 -31 14.667 -41 18s-20.333 5 -31 5c-16.667 0 -29.334 -10.333 -38.001 -31c-4 -12.667 -12 -19 -24 -19c-6 0 -11.5 2.33301 -16.5 7zM62.0039 7.50195c-8.66699 9 -13 19.833 -13 32.5c0 4.66699 1.66699 11.334 5 20.001
l255 602c6 13.333 14 23.666 24 30.999s21.667 11 35 11h10c13.333 0 25 -3.66699 35 -11s18 -17.666 24 -30.999l255 -602c3.33301 -8.66699 5 -15.334 5 -20.001c0 -12.667 -4.33301 -23.5 -13 -32.5s-19.667 -13.5 -33 -13.5c-10 0 -18.833 2.5 -26.5 7.5
s-13.5 12.167 -17.5 21.5l-65 155h-338l-65 -155c-4 -9.33301 -9.83301 -16.5 -17.5 -21.5s-16.5 -7.5 -26.5 -7.5c-13.333 0 -24.333 4.5 -33 13.5zM373.004 573.002c-3.33301 0 -6 -2.33301 -8 -7l-126 -303h268l-126 303c-2 4.66699 -4.66699 7 -8 7z" />
    <glyph glyph-name="uni0041_uni030D.liga" unicode="A&#x30d;" horiz-adv-x="746" 
d="M346.5 933c6.33301 6.66699 15.5 10 27.5 10c11.333 0 20.333 -3.16699 27 -9.5s10 -15.5 10 -27.5v-117c0 -11.333 -3.16699 -20.333 -9.5 -27s-15.5 -10 -27.5 -10c-11.333 0 -20.333 3.16699 -27 9.5s-10 15.5 -10 27.5v117c0 11.333 3.16699 20.333 9.5 27zM62 7.5
c-8.66699 9 -13 19.833 -13 32.5c0 4.66699 1.66699 11.334 5 20.001l255 602c6 13.333 14 23.666 24 30.999s21.667 11 35 11h10c13.333 0 25 -3.66699 35 -11s18 -17.666 24 -30.999l255 -602c3.33301 -8.66699 5 -15.334 5 -20.001c0 -12.667 -4.33301 -23.5 -13 -32.5
s-19.667 -13.5 -33 -13.5c-10 0 -18.833 2.5 -26.5 7.5s-13.5 12.167 -17.5 21.5l-65 155h-338l-65 -155c-4 -9.33301 -9.83301 -16.5 -17.5 -21.5s-16.5 -7.5 -26.5 -7.5c-13.333 0 -24.333 4.5 -33 13.5zM373 573c-3.33301 0 -6 -2.33301 -8 -7l-126 -303h268l-126 303
c-2 4.66699 -4.66699 7 -8 7z" />
    <glyph glyph-name="uni0045_uni030B.liga" unicode="E&#x30b;" horiz-adv-x="638" 
d="M236 756c-5.33301 4.66699 -8 10.999 -8 18.999c0 4 0.333008 6.66699 1 8l27 90c2.66699 10 7.66699 17.833 15 23.5s15.333 8.5 24 8.5c10 0 18.5 -3.16699 25.5 -9.5s10.5 -14.5 10.5 -24.5c0 -7.33301 -2.33301 -15.666 -7 -24.999l-41 -79
c-6.66699 -12 -15.667 -18 -27 -18c-8 0 -14.667 2.33301 -20 7zM352 755.999c-5.33301 4.66699 -8 10.999 -8 18.999c0 4 0.333008 6.66699 1 8l27 90c2.66699 10 7.66699 17.833 15 23.5s15.333 8.5 24 8.5c10 0 18.5 -3.16699 25.5 -9.5s10.5 -14.5 10.5 -24.5
c0 -7.33301 -2.33301 -15.666 -7 -24.999l-41 -79c-6.66699 -12 -15.667 -18 -27 -18c-8 0 -14.667 2.33301 -20 7zM109.5 12.498c-9 9 -13.5 19.833 -13.5 32.5v607c0 12.667 4.5 23.667 13.5 33s19.833 14 32.5 14h401c12 0 22.333 -4.33301 31 -13s13 -19 13 -31
s-4.33301 -22.167 -13 -30.5s-19 -12.5 -31 -12.5h-342c-8 0 -12 -4 -12 -12v-207h318c12 0 22.333 -4.33301 31 -13s13 -19 13 -31s-4.33301 -22.167 -13 -30.5s-19 -12.5 -31 -12.5h-318v-208c0 -8 4 -12 12 -12h342c12 0 22.333 -4.33301 31 -13s13 -19 13 -31
s-4.33301 -22.167 -13 -30.5s-19 -12.5 -31 -12.5h-401c-12.667 0 -23.5 4.5 -32.5 13.5z" />
    <glyph glyph-name="E_tildecomb.liga" unicode="E&#x303;" horiz-adv-x="638" 
d="M180.5 750c-5 4.66699 -7.49805 10.3359 -7.49805 17.0029c0 23.333 8.33301 45.166 25 65.499s36.667 30.5 60 30.5c12.667 0 24.667 -1.83301 36 -5.5s26 -9.83398 44 -18.501c17.333 -8.66699 31.166 -14.667 41.499 -18s21.166 -5 32.499 -5
c8.66699 0 15.834 2 21.501 6s10.5 10.667 14.5 20c5.33301 14.667 14 22 26 22c6.66699 0 12.167 -2.16699 16.5 -6.5s6.83301 -9.83301 7.5 -16.5c0 -24.667 -8.33301 -46.834 -25 -66.501s-36.667 -29.5 -60 -29.5c-12 0 -23.5 1.83301 -34.5 5.5
s-26.833 10.167 -47.5 19.5c-17.333 8.66699 -31 14.667 -41 18s-20.333 5 -31 5c-16.667 0 -29.334 -10.333 -38.001 -31c-4 -12.667 -12 -19 -24 -19c-6 0 -11.5 2.33301 -16.5 7zM109.502 12.502c-9 9 -13.5 19.833 -13.5 32.5v607c0 12.667 4.5 23.667 13.5 33
s19.833 14 32.5 14h401c12 0 22.333 -4.33301 31 -13s13 -19 13 -31s-4.33301 -22.167 -13 -30.5s-19 -12.5 -31 -12.5h-342c-8 0 -12 -4 -12 -12v-207h318c12 0 22.333 -4.33301 31 -13s13 -19 13 -31s-4.33301 -22.167 -13 -30.5s-19 -12.5 -31 -12.5h-318v-208
c0 -8 4 -12 12 -12h342c12 0 22.333 -4.33301 31 -13s13 -19 13 -31s-4.33301 -22.167 -13 -30.5s-19 -12.5 -31 -12.5h-401c-12.667 0 -23.5 4.5 -32.5 13.5z" />
    <glyph glyph-name="uni0045_uni030D.liga" unicode="E&#x30d;" horiz-adv-x="638" 
d="M299.5 930c6.33301 6.66699 15.5 10 27.5 10c11.333 0 20.333 -3.16699 27 -9.5s10 -15.5 10 -27.5v-117c0 -11.333 -3.16699 -20.333 -9.5 -27s-15.5 -10 -27.5 -10c-11.333 0 -20.333 3.16699 -27 9.5s-10 15.5 -10 27.5v117c0 11.333 3.16699 20.333 9.5 27z
M109.5 12.5c-9 9 -13.5 19.833 -13.5 32.5v607c0 12.667 4.5 23.667 13.5 33s19.833 14 32.5 14h401c12 0 22.333 -4.33301 31 -13s13 -19 13 -31s-4.33301 -22.167 -13 -30.5s-19 -12.5 -31 -12.5h-342c-8 0 -12 -4 -12 -12v-207h318c12 0 22.333 -4.33301 31 -13
s13 -19 13 -31s-4.33301 -22.167 -13 -30.5s-19 -12.5 -31 -12.5h-318v-208c0 -8 4 -12 12 -12h342c12 0 22.333 -4.33301 31 -13s13 -19 13 -31s-4.33301 -22.167 -13 -30.5s-19 -12.5 -31 -12.5h-401c-12.667 0 -23.5 4.5 -32.5 13.5z" />
    <glyph glyph-name="uni0049_uni030B.liga" unicode="I&#x30b;" horiz-adv-x="285" 
d="M52 760c-5.33301 4.66699 -8 10.999 -8 18.999c0 4 0.333008 6.66699 1 8l27 90c2.66699 10 7.66699 17.833 15 23.5s15.333 8.5 24 8.5c10 0 18.5 -3.16699 25.5 -9.5s10.5 -14.5 10.5 -24.5c0 -7.33301 -2.33301 -15.666 -7 -24.999l-41 -79
c-6.66699 -12 -15.667 -18 -27 -18c-8 0 -14.667 2.33301 -20 7zM168 759.999c-5.33301 4.66699 -8 10.999 -8 18.999c0 4 0.333008 6.66699 1 8l27 90c2.66699 10 7.66699 17.833 15 23.5s15.333 8.5 24 8.5c10 0 18.5 -3.16699 25.5 -9.5s10.5 -14.5 10.5 -24.5
c0 -7.33301 -2.33301 -15.666 -7 -24.999l-41 -79c-6.66699 -12 -15.667 -18 -27 -18c-8 0 -14.667 2.33301 -20 7zM109.5 7.49805c-9 9 -13.5 19.833 -13.5 32.5v617c0 12.667 4.5 23.667 13.5 33s19.833 14 32.5 14s23.667 -4.66699 33 -14s14 -20.333 14 -33v-617
c0 -12.667 -4.66699 -23.5 -14 -32.5s-20.333 -13.5 -33 -13.5s-23.5 4.5 -32.5 13.5z" />
    <glyph glyph-name="I_tildecomb.liga" unicode="I&#x303;" horiz-adv-x="285" 
d="M-3.5 754c-5 4.66699 -7.49609 10.3359 -7.49609 17.0029c0 23.333 8.33301 45.166 25 65.499s36.667 30.5 60 30.5c12.667 0 24.667 -1.83301 36 -5.5s26 -9.83398 44 -18.501c17.333 -8.66699 31.166 -14.667 41.499 -18s21.166 -5 32.499 -5
c8.66699 0 15.834 2 21.501 6s10.5 10.667 14.5 20c5.33301 14.667 14 22 26 22c6.66699 0 12.167 -2.16699 16.5 -6.5s6.83301 -9.83301 7.5 -16.5c0 -24.667 -8.33301 -46.834 -25 -66.501s-36.667 -29.5 -60 -29.5c-12.667 0 -24.334 1.83301 -35.001 5.5
s-26.334 10.167 -47.001 19.5c-17.333 8.66699 -31 14.667 -41 18s-20.333 5 -31 5c-16.667 0 -29.334 -10.333 -38.001 -31c-4 -12.667 -12 -19 -24 -19c-6 0 -11.5 2.33301 -16.5 7zM109.504 7.50195c-9 9 -13.5 19.833 -13.5 32.5v617c0 12.667 4.5 23.667 13.5 33
s19.833 14 32.5 14s23.667 -4.66699 33 -14s14 -20.333 14 -33v-617c0 -12.667 -4.66699 -23.5 -14 -32.5s-20.333 -13.5 -33 -13.5s-23.5 4.5 -32.5 13.5z" />
    <glyph glyph-name="uni0049_uni030D.liga" unicode="I&#x30d;" horiz-adv-x="285" 
d="M115.5 934c6.33301 6.66699 15.5 10 27.5 10c11.333 0 20.333 -3.16699 27 -9.5s10 -15.5 10 -27.5v-117c0 -11.333 -3.16699 -20.333 -9.5 -27s-15.5 -10 -27.5 -10c-11.333 0 -20.333 3.16699 -27 9.5s-10 15.5 -10 27.5v117c0 11.333 3.16699 20.333 9.5 27z
M109.5 7.5c-9 9 -13.5 19.833 -13.5 32.5v617c0 12.667 4.5 23.667 13.5 33s19.833 14 32.5 14s23.667 -4.66699 33 -14s14 -20.333 14 -33v-617c0 -12.667 -4.66699 -23.5 -14 -32.5s-20.333 -13.5 -33 -13.5s-23.5 4.5 -32.5 13.5z" />
    <glyph glyph-name="M_gravecomb.liga" unicode="M&#x300;" horiz-adv-x="966" 
d="M460 701l-69 82c-6.66699 10 -10 18.667 -10 26c0 12 3.5 21.333 10.5 28s16.167 10 27.5 10c16 0 27.333 -6.66699 34 -20l51 -89c4.66699 -8 7 -14.667 7 -20c0 -8 -2.5 -14.667 -7.5 -20s-11.833 -8 -20.5 -8c-9.33301 0 -17 3.66699 -23 11zM109.5 7.5
c-9 9 -13.5 19.833 -13.5 32.5v597c0 18 6.5 33.667 19.5 47s28.5 20 46.5 20h33c12.667 0 24.667 -3.83301 36 -11.5s20 -18.167 26 -31.5l218 -544c2 -4.66699 4.66699 -7 8 -7s6 2.33301 8 7l218 544c6 13.333 14.667 23.833 26 31.5s23.333 11.5 36 11.5h33
c18 0 33.5 -6.66699 46.5 -20s19.5 -29 19.5 -47v-597c0 -12.667 -4.5 -23.5 -13.5 -32.5s-19.833 -13.5 -32.5 -13.5s-23.667 4.5 -33 13.5s-14 19.833 -14 32.5v528c0 6 -2 9 -6 9c-2.66699 0 -5 -2 -7 -6l-216 -534c-5.33301 -12.667 -14 -23 -26 -31s-25 -12 -39 -12
s-27 4 -39 12s-20.667 18.333 -26 31l-216 534c-2 4 -4.33301 6 -7 6c-4 0 -6 -3 -6 -9v-528c0 -12.667 -4.66699 -23.5 -14 -32.5s-20.333 -13.5 -33 -13.5s-23.5 4.5 -32.5 13.5z" />
    <glyph glyph-name="M_acutecomb.liga" unicode="M&#x301;" horiz-adv-x="966" 
d="M463 697.5c-5.33301 5 -8 11.834 -8 20.501c0 5.33301 2.33301 12 7 20l51 89c6.66699 13.333 18 20 34 20c10.667 0 19.667 -3.5 27 -10.5s11 -16.167 11 -27.5c0 -10.667 -3.33301 -19.334 -10 -26.001l-69 -82c-6 -7.33301 -13.667 -11 -23 -11
c-8 0 -14.667 2.5 -20 7.5zM109.5 7.50098c-9 9 -13.5 19.833 -13.5 32.5v597c0 18 6.5 33.667 19.5 47s28.5 20 46.5 20h33c12.667 0 24.667 -3.83301 36 -11.5s20 -18.167 26 -31.5l218 -544c2 -4.66699 4.66699 -7 8 -7s6 2.33301 8 7l218 544
c6 13.333 14.667 23.833 26 31.5s23.333 11.5 36 11.5h33c18 0 33.5 -6.66699 46.5 -20s19.5 -29 19.5 -47v-597c0 -12.667 -4.5 -23.5 -13.5 -32.5s-19.833 -13.5 -32.5 -13.5s-23.667 4.5 -33 13.5s-14 19.833 -14 32.5v528c0 6 -2 9 -6 9c-2.66699 0 -5 -2 -7 -6
l-216 -534c-5.33301 -12.667 -14 -23 -26 -31s-25 -12 -39 -12s-27 4 -39 12s-20.667 18.333 -26 31l-216 534c-2 4 -4.33301 6 -7 6c-4 0 -6 -3 -6 -9v-528c0 -12.667 -4.66699 -23.5 -14 -32.5s-20.333 -13.5 -33 -13.5s-23.5 4.5 -32.5 13.5z" />
    <glyph glyph-name="uni004D_uni030B.liga" unicode="M&#x30b;" horiz-adv-x="966" 
d="M392 707c-5.33301 4.66699 -8 10.999 -8 18.999c0 4 0.333008 6.66699 1 8l27 90c2.66699 10 7.66699 17.833 15 23.5s15.333 8.5 24 8.5c10 0 18.5 -3.16699 25.5 -9.5s10.5 -14.5 10.5 -24.5c0 -7.33301 -2.33301 -15.666 -7 -24.999l-41 -79
c-6.66699 -12 -15.667 -18 -27 -18c-8 0 -14.667 2.33301 -20 7zM508 706.999c-5.33301 4.66699 -8 10.999 -8 18.999c0 4 0.333008 6.66699 1 8l27 90c2.66699 10 7.66699 17.833 15 23.5s15.333 8.5 24 8.5c10 0 18.5 -3.16699 25.5 -9.5s10.5 -14.5 10.5 -24.5
c0 -7.33301 -2.33301 -15.666 -7 -24.999l-41 -79c-6.66699 -12 -15.667 -18 -27 -18c-8 0 -14.667 2.33301 -20 7zM109.5 7.49805c-9 9 -13.5 19.833 -13.5 32.5v597c0 18 6.5 33.667 19.5 47s28.5 20 46.5 20h33c12.667 0 24.667 -3.83301 36 -11.5s20 -18.167 26 -31.5
l218 -544c2 -4.66699 4.66699 -7 8 -7s6 2.33301 8 7l218 544c6 13.333 14.667 23.833 26 31.5s23.333 11.5 36 11.5h33c18 0 33.5 -6.66699 46.5 -20s19.5 -29 19.5 -47v-597c0 -12.667 -4.5 -23.5 -13.5 -32.5s-19.833 -13.5 -32.5 -13.5s-23.667 4.5 -33 13.5
s-14 19.833 -14 32.5v528c0 6 -2 9 -6 9c-2.66699 0 -5 -2 -7 -6l-216 -534c-5.33301 -12.667 -14 -23 -26 -31s-25 -12 -39 -12s-27 4 -39 12s-20.667 18.333 -26 31l-216 534c-2 4 -4.33301 6 -7 6c-4 0 -6 -3 -6 -9v-528c0 -12.667 -4.66699 -23.5 -14 -32.5
s-20.333 -13.5 -33 -13.5s-23.5 4.5 -32.5 13.5z" />
    <glyph glyph-name="uni004D_uni0302.liga" unicode="M&#x302;" horiz-adv-x="966" 
d="M356.5 709.5c-6.33301 6.33301 -9.50293 13.166 -9.50293 20.499s2.66699 14.333 8 21l68 70c12.667 13.333 26.334 20 41.001 20h38c14.667 0 28.334 -6.66699 41.001 -20l68 -70c5.33301 -6.66699 8 -13.667 8 -21s-3.16699 -14.166 -9.5 -20.499
s-13.5 -9.5 -21.5 -9.5c-7.33301 0 -13.666 2.33301 -18.999 7l-78 66c-2 2.66699 -4.66699 4 -8 4c-2.66699 0 -5.33398 -1.33301 -8.00098 -4l-78 -66c-5.33301 -4.66699 -11.666 -7 -18.999 -7c-8 0 -15.167 3.16699 -21.5 9.5zM109.497 7.5
c-9 9 -13.5 19.833 -13.5 32.5v597c0 18 6.5 33.667 19.5 47s28.5 20 46.5 20h33c12.667 0 24.667 -3.83301 36 -11.5s20 -18.167 26 -31.5l218 -544c2 -4.66699 4.66699 -7 8 -7s6 2.33301 8 7l218 544c6 13.333 14.667 23.833 26 31.5s23.333 11.5 36 11.5h33
c18 0 33.5 -6.66699 46.5 -20s19.5 -29 19.5 -47v-597c0 -12.667 -4.5 -23.5 -13.5 -32.5s-19.833 -13.5 -32.5 -13.5s-23.667 4.5 -33 13.5s-14 19.833 -14 32.5v528c0 6 -2 9 -6 9c-2.66699 0 -5 -2 -7 -6l-216 -534c-5.33301 -12.667 -14 -23 -26 -31s-25 -12 -39 -12
s-27 4 -39 12s-20.667 18.333 -26 31l-216 534c-2 4 -4.33301 6 -7 6c-4 0 -6 -3 -6 -9v-528c0 -12.667 -4.66699 -23.5 -14 -32.5s-20.333 -13.5 -33 -13.5s-23.5 4.5 -32.5 13.5z" />
    <glyph glyph-name="uni004D_uni030C.liga" unicode="M&#x30c;" horiz-adv-x="966" 
d="M423 720l-67.9971 70c-5.33301 6.66699 -8 13.667 -8 21s3.16699 14.166 9.5 20.499s13.5 9.5 21.5 9.5c7.33301 0 13.666 -2.33301 18.999 -7l78 -66c4 -2.66699 6.66699 -4 8 -4c2.66699 0 5.33398 1.33301 8.00098 4l78 66c5.33301 4.66699 11.666 7 18.999 7
c8 0 15.167 -3.16699 21.5 -9.5s9.5 -13.166 9.5 -20.499s-2.66699 -14.333 -8 -21l-68 -70c-12.667 -13.333 -26.334 -20 -41.001 -20h-38c-14.667 0 -28.334 6.66699 -41.001 20zM109.503 7.5c-9 9 -13.5 19.833 -13.5 32.5v597c0 18 6.5 33.667 19.5 47s28.5 20 46.5 20
h33c12.667 0 24.667 -3.83301 36 -11.5s20 -18.167 26 -31.5l218 -544c2 -4.66699 4.66699 -7 8 -7s6 2.33301 8 7l218 544c6 13.333 14.667 23.833 26 31.5s23.333 11.5 36 11.5h33c18 0 33.5 -6.66699 46.5 -20s19.5 -29 19.5 -47v-597c0 -12.667 -4.5 -23.5 -13.5 -32.5
s-19.833 -13.5 -32.5 -13.5s-23.667 4.5 -33 13.5s-14 19.833 -14 32.5v528c0 6 -2 9 -6 9c-2.66699 0 -5 -2 -7 -6l-216 -534c-5.33301 -12.667 -14 -23 -26 -31s-25 -12 -39 -12s-27 4 -39 12s-20.667 18.333 -26 31l-216 534c-2 4 -4.33301 6 -7 6c-4 0 -6 -3 -6 -9v-528
c0 -12.667 -4.66699 -23.5 -14 -32.5s-20.333 -13.5 -33 -13.5s-23.5 4.5 -32.5 13.5z" />
    <glyph glyph-name="uni004D_uni0306.liga" unicode="M&#x306;" horiz-adv-x="966" 
d="M397 711.5c-25.333 14.333 -43.6641 34.5 -54.9971 60.5c-2 4 -3 8.66699 -3 14c0 8.66699 3 16.167 9 22.5s13.667 9.5 23 9.5c13.333 0 23 -6.66699 29 -20c7.33301 -15.333 18.166 -27.166 32.499 -35.499s31.166 -12.5 50.499 -12.5s36.166 4.16699 50.499 12.5
s25.166 20.166 32.499 35.499c6 13.333 15.667 20 29 20c9.33301 0 17 -3.16699 23 -9.5s9 -13.833 9 -22.5c0 -5.33301 -1 -10 -3 -14c-11.333 -26 -29.666 -46.167 -54.999 -60.5s-54 -21.5 -86 -21.5s-60.667 7.16699 -86 21.5zM109.502 7.5
c-9 9 -13.5 19.833 -13.5 32.5v597c0 18 6.5 33.667 19.5 47s28.5 20 46.5 20h33c12.667 0 24.667 -3.83301 36 -11.5s20 -18.167 26 -31.5l218 -544c2 -4.66699 4.66699 -7 8 -7s6 2.33301 8 7l218 544c6 13.333 14.667 23.833 26 31.5s23.333 11.5 36 11.5h33
c18 0 33.5 -6.66699 46.5 -20s19.5 -29 19.5 -47v-597c0 -12.667 -4.5 -23.5 -13.5 -32.5s-19.833 -13.5 -32.5 -13.5s-23.667 4.5 -33 13.5s-14 19.833 -14 32.5v528c0 6 -2 9 -6 9c-2.66699 0 -5 -2 -7 -6l-216 -534c-5.33301 -12.667 -14 -23 -26 -31s-25 -12 -39 -12
s-27 4 -39 12s-20.667 18.333 -26 31l-216 534c-2 4 -4.33301 6 -7 6c-4 0 -6 -3 -6 -9v-528c0 -12.667 -4.66699 -23.5 -14 -32.5s-20.333 -13.5 -33 -13.5s-23.5 4.5 -32.5 13.5z" />
    <glyph glyph-name="uni004D_uni0304.liga" unicode="M&#x304;" horiz-adv-x="966" 
d="M344 729c-6 6 -9 13.333 -9 22s3 16 9 22s13.333 9 22 9h234c8.66699 0 16 -3 22 -9s9 -13.333 9 -22s-3 -16 -9 -22s-13.333 -9 -22 -9h-234c-8.66699 0 -16 3 -22 9zM109.5 7.5c-9 9 -13.5 19.833 -13.5 32.5v597c0 18 6.5 33.667 19.5 47s28.5 20 46.5 20h33
c12.667 0 24.667 -3.83301 36 -11.5s20 -18.167 26 -31.5l218 -544c2 -4.66699 4.66699 -7 8 -7s6 2.33301 8 7l218 544c6 13.333 14.667 23.833 26 31.5s23.333 11.5 36 11.5h33c18 0 33.5 -6.66699 46.5 -20s19.5 -29 19.5 -47v-597c0 -12.667 -4.5 -23.5 -13.5 -32.5
s-19.833 -13.5 -32.5 -13.5s-23.667 4.5 -33 13.5s-14 19.833 -14 32.5v528c0 6 -2 9 -6 9c-2.66699 0 -5 -2 -7 -6l-216 -534c-5.33301 -12.667 -14 -23 -26 -31s-25 -12 -39 -12s-27 4 -39 12s-20.667 18.333 -26 31l-216 534c-2 4 -4.33301 6 -7 6c-4 0 -6 -3 -6 -9v-528
c0 -12.667 -4.66699 -23.5 -14 -32.5s-20.333 -13.5 -33 -13.5s-23.5 4.5 -32.5 13.5z" />
    <glyph glyph-name="uni004D_uni030D.liga" unicode="M&#x30d;" horiz-adv-x="966" 
d="M455.5 881c6.33301 6.66699 15.5 10 27.5 10c11.333 0 20.333 -3.16699 27 -9.5s10 -15.5 10 -27.5v-117c0 -11.333 -3.16699 -20.333 -9.5 -27s-15.5 -10 -27.5 -10c-11.333 0 -20.333 3.16699 -27 9.5s-10 15.5 -10 27.5v117c0 11.333 3.16699 20.333 9.5 27z
M109.5 7.5c-9 9 -13.5 19.833 -13.5 32.5v597c0 18 6.5 33.667 19.5 47s28.5 20 46.5 20h33c12.667 0 24.667 -3.83301 36 -11.5s20 -18.167 26 -31.5l218 -544c2 -4.66699 4.66699 -7 8 -7s6 2.33301 8 7l218 544c6 13.333 14.667 23.833 26 31.5s23.333 11.5 36 11.5h33
c18 0 33.5 -6.66699 46.5 -20s19.5 -29 19.5 -47v-597c0 -12.667 -4.5 -23.5 -13.5 -32.5s-19.833 -13.5 -32.5 -13.5s-23.667 4.5 -33 13.5s-14 19.833 -14 32.5v528c0 6 -2 9 -6 9c-2.66699 0 -5 -2 -7 -6l-216 -534c-5.33301 -12.667 -14 -23 -26 -31s-25 -12 -39 -12
s-27 4 -39 12s-20.667 18.333 -26 31l-216 534c-2 4 -4.33301 6 -7 6c-4 0 -6 -3 -6 -9v-528c0 -12.667 -4.66699 -23.5 -14 -32.5s-20.333 -13.5 -33 -13.5s-23.5 4.5 -32.5 13.5z" />
    <glyph glyph-name="N_gravecomb.liga" unicode="N&#x300;" horiz-adv-x="803" 
d="M371 743l-69 82c-6.66699 10 -10 18.667 -10 26c0 12 3.5 21.333 10.5 28s16.167 10 27.5 10c16 0 27.333 -6.66699 34 -20l51 -89c4.66699 -8 7 -14.667 7 -20c0 -8 -2.5 -14.667 -7.5 -20s-11.833 -8 -20.5 -8c-9.33301 0 -17 3.66699 -23 11zM109.5 7.5
c-9 9 -13.499 19.833 -13.499 32.5v597c0 18 6.5 33.667 19.5 47s28.5 20 46.5 20h13c21.333 0 40 -10 56 -30l369 -533c3.33301 -4 6 -6 8 -6c1.33301 0 2.66602 1 3.99902 3s2 4.33301 2 7v512c0 12.667 4.5 23.667 13.5 33s19.833 14 32.5 14s23.667 -4.66699 33 -14
s14 -20.333 14 -33v-597c0 -18 -6.66699 -33.5 -20 -46.5s-29 -19.5 -47 -19.5h-12c-10.667 0 -20.834 2.5 -30.501 7.5s-17.5 11.5 -23.5 19.5l-371 536c-3.33301 4 -6 6 -8 6c-1.33301 0 -2.66602 -1 -3.99902 -3s-2 -4.33301 -2 -7v-513
c0 -12.667 -4.66699 -23.5 -14 -32.5s-20.333 -13.5 -33 -13.5s-23.5 4.5 -32.5 13.5z" />
    <glyph glyph-name="N_acutecomb.liga" unicode="N&#x301;" horiz-adv-x="803" 
d="M374 739.5c-5.33301 5 -8 11.834 -8 20.501c0 5.33301 2.33301 12 7 20l51 89c6.66699 13.333 18 20 34 20c10.667 0 19.667 -3.5 27 -10.5s11 -16.167 11 -27.5c0 -10.667 -3.33301 -19.334 -10 -26.001l-69 -82c-6 -7.33301 -13.667 -11 -23 -11
c-8 0 -14.667 2.5 -20 7.5zM109.5 7.50098c-9 9 -13.499 19.833 -13.499 32.5v597c0 18 6.5 33.667 19.5 47s28.5 20 46.5 20h13c21.333 0 40 -10 56 -30l369 -533c3.33301 -4 6 -6 8 -6c1.33301 0 2.66602 1 3.99902 3s2 4.33301 2 7v512c0 12.667 4.5 23.667 13.5 33
s19.833 14 32.5 14s23.667 -4.66699 33 -14s14 -20.333 14 -33v-597c0 -18 -6.66699 -33.5 -20 -46.5s-29 -19.5 -47 -19.5h-12c-10.667 0 -20.834 2.5 -30.501 7.5s-17.5 11.5 -23.5 19.5l-371 536c-3.33301 4 -6 6 -8 6c-1.33301 0 -2.66602 -1 -3.99902 -3
s-2 -4.33301 -2 -7v-513c0 -12.667 -4.66699 -23.5 -14 -32.5s-20.333 -13.5 -33 -13.5s-23.5 4.5 -32.5 13.5z" />
    <glyph glyph-name="uni004E_uni030B.liga" unicode="N&#x30b;" horiz-adv-x="803" 
d="M303 749c-5.33301 4.66699 -8 10.999 -8 18.999c0 4 0.333008 6.66699 1 8l27 90c2.66699 10 7.66699 17.833 15 23.5s15.333 8.5 24 8.5c10 0 18.5 -3.16699 25.5 -9.5s10.5 -14.5 10.5 -24.5c0 -7.33301 -2.33301 -15.666 -7 -24.999l-41 -79
c-6.66699 -12 -15.667 -18 -27 -18c-8 0 -14.667 2.33301 -20 7zM419 748.999c-5.33301 4.66699 -8 10.999 -8 18.999c0 4 0.333008 6.66699 1 8l27 90c2.66699 10 7.66699 17.833 15 23.5s15.333 8.5 24 8.5c10 0 18.5 -3.16699 25.5 -9.5s10.5 -14.5 10.5 -24.5
c0 -7.33301 -2.33301 -15.666 -7 -24.999l-41 -79c-6.66699 -12 -15.667 -18 -27 -18c-8 0 -14.667 2.33301 -20 7zM109.5 7.49805c-9 9 -13.499 19.833 -13.499 32.5v597c0 18 6.5 33.667 19.5 47s28.5 20 46.5 20h13c21.333 0 40 -10 56 -30l369 -533
c3.33301 -4 6 -6 8 -6c1.33301 0 2.66602 1 3.99902 3s2 4.33301 2 7v512c0 12.667 4.5 23.667 13.5 33s19.833 14 32.5 14s23.667 -4.66699 33 -14s14 -20.333 14 -33v-597c0 -18 -6.66699 -33.5 -20 -46.5s-29 -19.5 -47 -19.5h-12c-10.667 0 -20.834 2.5 -30.501 7.5
s-17.5 11.5 -23.5 19.5l-371 536c-3.33301 4 -6 6 -8 6c-1.33301 0 -2.66602 -1 -3.99902 -3s-2 -4.33301 -2 -7v-513c0 -12.667 -4.66699 -23.5 -14 -32.5s-20.333 -13.5 -33 -13.5s-23.5 4.5 -32.5 13.5z" />
    <glyph glyph-name="uni004E_uni0302.liga" unicode="N&#x302;" horiz-adv-x="803" 
d="M267.5 751.5c-6.33301 6.33301 -9.50293 13.166 -9.50293 20.499s2.66699 14.333 8 21l68 70c12.667 13.333 26.334 20 41.001 20h38c14.667 0 28.334 -6.66699 41.001 -20l68 -70c5.33301 -6.66699 8 -13.667 8 -21s-3.16699 -14.166 -9.5 -20.499
s-13.5 -9.5 -21.5 -9.5c-7.33301 0 -13.666 2.33301 -18.999 7l-78 66c-2 2.66699 -4.66699 4 -8 4c-2.66699 0 -5.33398 -1.33301 -8.00098 -4l-78 -66c-5.33301 -4.66699 -11.666 -7 -18.999 -7c-8 0 -15.167 3.16699 -21.5 9.5zM109.497 7.5
c-9 9 -13.499 19.833 -13.499 32.5v597c0 18 6.5 33.667 19.5 47s28.5 20 46.5 20h13c21.333 0 40 -10 56 -30l369 -533c3.33301 -4 6 -6 8 -6c1.33301 0 2.66602 1 3.99902 3s2 4.33301 2 7v512c0 12.667 4.5 23.667 13.5 33s19.833 14 32.5 14s23.667 -4.66699 33 -14
s14 -20.333 14 -33v-597c0 -18 -6.66699 -33.5 -20 -46.5s-29 -19.5 -47 -19.5h-12c-10.667 0 -20.834 2.5 -30.501 7.5s-17.5 11.5 -23.5 19.5l-371 536c-3.33301 4 -6 6 -8 6c-1.33301 0 -2.66602 -1 -3.99902 -3s-2 -4.33301 -2 -7v-513
c0 -12.667 -4.66699 -23.5 -14 -32.5s-20.333 -13.5 -33 -13.5s-23.5 4.5 -32.5 13.5z" />
    <glyph glyph-name="uni004E_uni030C.liga" unicode="N&#x30c;" horiz-adv-x="803" 
d="M334 762l-67.9971 70c-5.33301 6.66699 -8 13.667 -8 21s3.16699 14.166 9.5 20.499s13.5 9.5 21.5 9.5c7.33301 0 13.666 -2.33301 18.999 -7l78 -66c4 -2.66699 6.66699 -4 8 -4c2.66699 0 5.33398 1.33301 8.00098 4l78 66c5.33301 4.66699 11.666 7 18.999 7
c8 0 15.167 -3.16699 21.5 -9.5s9.5 -13.166 9.5 -20.499s-2.66699 -14.333 -8 -21l-68 -70c-12.667 -13.333 -26.334 -20 -41.001 -20h-38c-14.667 0 -28.334 6.66699 -41.001 20zM109.503 7.5c-9 9 -13.499 19.833 -13.499 32.5v597c0 18 6.5 33.667 19.5 47
s28.5 20 46.5 20h13c21.333 0 40 -10 56 -30l369 -533c3.33301 -4 6 -6 8 -6c1.33301 0 2.66602 1 3.99902 3s2 4.33301 2 7v512c0 12.667 4.5 23.667 13.5 33s19.833 14 32.5 14s23.667 -4.66699 33 -14s14 -20.333 14 -33v-597c0 -18 -6.66699 -33.5 -20 -46.5
s-29 -19.5 -47 -19.5h-12c-10.667 0 -20.834 2.5 -30.501 7.5s-17.5 11.5 -23.5 19.5l-371 536c-3.33301 4 -6 6 -8 6c-1.33301 0 -2.66602 -1 -3.99902 -3s-2 -4.33301 -2 -7v-513c0 -12.667 -4.66699 -23.5 -14 -32.5s-20.333 -13.5 -33 -13.5s-23.5 4.5 -32.5 13.5z" />
    <glyph glyph-name="uni004E_uni0306.liga" unicode="N&#x306;" horiz-adv-x="803" 
d="M308 753.5c-25.333 14.333 -43.6641 34.5 -54.9971 60.5c-2 4 -3 8.66699 -3 14c0 8.66699 3 16.167 9 22.5s13.667 9.5 23 9.5c13.333 0 23 -6.66699 29 -20c7.33301 -15.333 18.166 -27.166 32.499 -35.499s31.166 -12.5 50.499 -12.5s36.166 4.16699 50.499 12.5
s25.166 20.166 32.499 35.499c6 13.333 15.667 20 29 20c9.33301 0 17 -3.16699 23 -9.5s9 -13.833 9 -22.5c0 -5.33301 -1 -10 -3 -14c-11.333 -26 -29.666 -46.167 -54.999 -60.5s-54 -21.5 -86 -21.5s-60.667 7.16699 -86 21.5zM109.502 7.5
c-9 9 -13.499 19.833 -13.499 32.5v597c0 18 6.5 33.667 19.5 47s28.5 20 46.5 20h13c21.333 0 40 -10 56 -30l369 -533c3.33301 -4 6 -6 8 -6c1.33301 0 2.66602 1 3.99902 3s2 4.33301 2 7v512c0 12.667 4.5 23.667 13.5 33s19.833 14 32.5 14s23.667 -4.66699 33 -14
s14 -20.333 14 -33v-597c0 -18 -6.66699 -33.5 -20 -46.5s-29 -19.5 -47 -19.5h-12c-10.667 0 -20.834 2.5 -30.501 7.5s-17.5 11.5 -23.5 19.5l-371 536c-3.33301 4 -6 6 -8 6c-1.33301 0 -2.66602 -1 -3.99902 -3s-2 -4.33301 -2 -7v-513
c0 -12.667 -4.66699 -23.5 -14 -32.5s-20.333 -13.5 -33 -13.5s-23.5 4.5 -32.5 13.5z" />
    <glyph glyph-name="uni004E_uni0304.liga" unicode="N&#x304;" horiz-adv-x="803" 
d="M255 771c-6 6 -9 13.333 -9 22s3 16 9 22s13.333 9 22 9h234c8.66699 0 16 -3 22 -9s9 -13.333 9 -22s-3 -16 -9 -22s-13.333 -9 -22 -9h-234c-8.66699 0 -16 3 -22 9zM109.5 7.5c-9 9 -13.499 19.833 -13.499 32.5v597c0 18 6.5 33.667 19.5 47s28.5 20 46.5 20h13
c21.333 0 40 -10 56 -30l369 -533c3.33301 -4 6 -6 8 -6c1.33301 0 2.66602 1 3.99902 3s2 4.33301 2 7v512c0 12.667 4.5 23.667 13.5 33s19.833 14 32.5 14s23.667 -4.66699 33 -14s14 -20.333 14 -33v-597c0 -18 -6.66699 -33.5 -20 -46.5s-29 -19.5 -47 -19.5h-12
c-10.667 0 -20.834 2.5 -30.501 7.5s-17.5 11.5 -23.5 19.5l-371 536c-3.33301 4 -6 6 -8 6c-1.33301 0 -2.66602 -1 -3.99902 -3s-2 -4.33301 -2 -7v-513c0 -12.667 -4.66699 -23.5 -14 -32.5s-20.333 -13.5 -33 -13.5s-23.5 4.5 -32.5 13.5z" />
    <glyph glyph-name="uni004E_uni030D.liga" unicode="N&#x30d;" horiz-adv-x="803" 
d="M366.5 923c6.33301 6.66699 15.5 10 27.5 10c11.333 0 20.333 -3.16699 27 -9.5s10 -15.5 10 -27.5v-117c0 -11.333 -3.16699 -20.333 -9.5 -27s-15.5 -10 -27.5 -10c-11.333 0 -20.333 3.16699 -27 9.5s-10 15.5 -10 27.5v117c0 11.333 3.16699 20.333 9.5 27z
M109.5 7.5c-9 9 -13.499 19.833 -13.499 32.5v597c0 18 6.5 33.667 19.5 47s28.5 20 46.5 20h13c21.333 0 40 -10 56 -30l369 -533c3.33301 -4 6 -6 8 -6c1.33301 0 2.66602 1 3.99902 3s2 4.33301 2 7v512c0 12.667 4.5 23.667 13.5 33s19.833 14 32.5 14
s23.667 -4.66699 33 -14s14 -20.333 14 -33v-597c0 -18 -6.66699 -33.5 -20 -46.5s-29 -19.5 -47 -19.5h-12c-10.667 0 -20.834 2.5 -30.501 7.5s-17.5 11.5 -23.5 19.5l-371 536c-3.33301 4 -6 6 -8 6c-1.33301 0 -2.66602 -1 -3.99902 -3s-2 -4.33301 -2 -7v-513
c0 -12.667 -4.66699 -23.5 -14 -32.5s-20.333 -13.5 -33 -13.5s-23.5 4.5 -32.5 13.5z" />
    <glyph glyph-name="O_gravecomb.liga" unicode="O&#x300;" horiz-adv-x="812" 
d="M385 761l-69 82c-6.66699 10 -10 18.667 -10 26c0 12 3.5 21.333 10.5 28s16.167 10 27.5 10c16 0 27.333 -6.66699 34 -20l51 -89c4.66699 -8 7 -14.667 7 -20c0 -8 -2.5 -14.667 -7.5 -20s-11.833 -8 -20.5 -8c-9.33301 0 -17 3.66699 -23 11zM221 35
c-52 30.667 -92.499 73.167 -121.499 127.5s-44.167 116.5 -45.5 186.5c1.33301 70 16.333 132 45 186c28.667 54.667 69.667 97.334 123 128.001s114.666 46 183.999 46c70 0 131.667 -15.333 185 -46c52 -30.667 92.5 -73.334 121.5 -128.001s44.167 -116.667 45.5 -186
c-1.33301 -69.333 -16.333 -131 -45 -185c-29.333 -55.333 -70.5 -98.333 -123.5 -129s-114.167 -46 -183.5 -46c-70 0 -131.667 15.333 -185 46zM544.001 112c38.667 23.333 68.499 55.5 89.499 96.5s31.5 87.833 31.5 140.5c0 52 -10.333 98.667 -31 140
c-21.333 42 -51.666 74.667 -90.999 98s-85 35 -137 35c-54 0 -100 -12 -138 -36c-38.667 -23.333 -68.5 -55.5 -89.5 -96.5s-31.5 -87.833 -31.5 -140.5c0 -52 10.333 -98.667 31 -140c21.333 -42.667 51.5 -75.5 90.5 -98.5s84.833 -34.5 137.5 -34.5c54 0 100 12 138 36z
" />
    <glyph glyph-name="uni004F_uni0300_uni0358.liga" unicode="O&#x300;&#x358;" horiz-adv-x="812" 
d="M385 761l-69 82c-6.66699 10 -10 18.667 -10 26c0 12 3.5 21.333 10.5 28s16.167 10 27.5 10c16 0 27.333 -6.66699 34 -20l51 -89c4.66699 -8 7 -14.667 7 -20c0 -8 -2.5 -14.667 -7.5 -20s-11.833 -8 -20.5 -8c-9.33301 0 -17 3.66699 -23 11zM707.5 683.5
c-10.333 10.333 -15.5 22.5 -15.5 36.5s5.16699 26.167 15.5 36.5s22.5 15.5 36.5 15.5s26.167 -5.16699 36.5 -15.5s15.5 -22.5 15.5 -36.5s-5.16699 -26.167 -15.5 -36.5s-22.5 -15.5 -36.5 -15.5s-26.167 5.16699 -36.5 15.5zM221 35
c-52 30.667 -92.499 73.167 -121.499 127.5s-44.167 116.5 -45.5 186.5c1.33301 70 16.333 132 45 186c28.667 54.667 69.667 97.334 123 128.001s114.666 46 183.999 46c70 0 131.667 -15.333 185 -46c52 -30.667 92.5 -73.334 121.5 -128.001s44.167 -116.667 45.5 -186
c-1.33301 -69.333 -16.333 -131 -45 -185c-29.333 -55.333 -70.5 -98.333 -123.5 -129s-114.167 -46 -183.5 -46c-70 0 -131.667 15.333 -185 46zM544.001 112c38.667 23.333 68.499 55.5 89.499 96.5s31.5 87.833 31.5 140.5c0 52 -10.333 98.667 -31 140
c-21.333 42 -51.666 74.667 -90.999 98s-85 35 -137 35c-54 0 -100 -12 -138 -36c-38.667 -23.333 -68.5 -55.5 -89.5 -96.5s-31.5 -87.833 -31.5 -140.5c0 -52 10.333 -98.667 31 -140c21.333 -42.667 51.5 -75.5 90.5 -98.5s84.833 -34.5 137.5 -34.5c54 0 100 12 138 36z
" />
    <glyph glyph-name="O_acutecomb.liga" unicode="O&#x301;" horiz-adv-x="812" 
d="M388 757.5c-5.33301 5 -8 11.834 -8 20.501c0 5.33301 2.33301 12 7 20l51 89c6.66699 13.333 18 20 34 20c10.667 0 19.667 -3.5 27 -10.5s11 -16.167 11 -27.5c0 -10.667 -3.33301 -19.334 -10 -26.001l-69 -82c-6 -7.33301 -13.667 -11 -23 -11
c-8 0 -14.667 2.5 -20 7.5zM221 35.001c-52 30.667 -92.499 73.167 -121.499 127.5s-44.167 116.5 -45.5 186.5c1.33301 70 16.333 132 45 186c28.667 54.667 69.667 97.334 123 128.001s114.666 46 183.999 46c70 0 131.667 -15.333 185 -46
c52 -30.667 92.5 -73.334 121.5 -128.001s44.167 -116.667 45.5 -186c-1.33301 -69.333 -16.333 -131 -45 -185c-29.333 -55.333 -70.5 -98.333 -123.5 -129s-114.167 -46 -183.5 -46c-70 0 -131.667 15.333 -185 46zM544.001 112.001
c38.667 23.333 68.499 55.5 89.499 96.5s31.5 87.833 31.5 140.5c0 52 -10.333 98.667 -31 140c-21.333 42 -51.666 74.667 -90.999 98s-85 35 -137 35c-54 0 -100 -12 -138 -36c-38.667 -23.333 -68.5 -55.5 -89.5 -96.5s-31.5 -87.833 -31.5 -140.5
c0 -52 10.333 -98.667 31 -140c21.333 -42.667 51.5 -75.5 90.5 -98.5s84.833 -34.5 137.5 -34.5c54 0 100 12 138 36z" />
    <glyph glyph-name="uni004F_uni0301_uni0358.liga" unicode="O&#x301;&#x358;" horiz-adv-x="812" 
d="M388 757.5c-5.33301 5 -8 11.834 -8 20.501c0 5.33301 2.33301 12 7 20l51 89c6.66699 13.333 18 20 34 20c10.667 0 19.667 -3.5 27 -10.5s11 -16.167 11 -27.5c0 -10.667 -3.33301 -19.334 -10 -26.001l-69 -82c-6 -7.33301 -13.667 -11 -23 -11
c-8 0 -14.667 2.5 -20 7.5zM707.5 683.501c-10.333 10.333 -15.5 22.5 -15.5 36.5s5.16699 26.167 15.5 36.5s22.5 15.5 36.5 15.5s26.167 -5.16699 36.5 -15.5s15.5 -22.5 15.5 -36.5s-5.16699 -26.167 -15.5 -36.5s-22.5 -15.5 -36.5 -15.5s-26.167 5.16699 -36.5 15.5z
M221 35.001c-52 30.667 -92.499 73.167 -121.499 127.5s-44.167 116.5 -45.5 186.5c1.33301 70 16.333 132 45 186c28.667 54.667 69.667 97.334 123 128.001s114.666 46 183.999 46c70 0 131.667 -15.333 185 -46c52 -30.667 92.5 -73.334 121.5 -128.001
s44.167 -116.667 45.5 -186c-1.33301 -69.333 -16.333 -131 -45 -185c-29.333 -55.333 -70.5 -98.333 -123.5 -129s-114.167 -46 -183.5 -46c-70 0 -131.667 15.333 -185 46zM544.001 112.001c38.667 23.333 68.499 55.5 89.499 96.5s31.5 87.833 31.5 140.5
c0 52 -10.333 98.667 -31 140c-21.333 42 -51.666 74.667 -90.999 98s-85 35 -137 35c-54 0 -100 -12 -138 -36c-38.667 -23.333 -68.5 -55.5 -89.5 -96.5s-31.5 -87.833 -31.5 -140.5c0 -52 10.333 -98.667 31 -140c21.333 -42.667 51.5 -75.5 90.5 -98.5
s84.833 -34.5 137.5 -34.5c54 0 100 12 138 36z" />
    <glyph glyph-name="uni004F_uni030B.liga" unicode="O&#x30b;" horiz-adv-x="812" 
d="M317 767c-5.33301 4.66699 -8 10.999 -8 18.999c0 4 0.333008 6.66699 1 8l27 90c2.66699 10 7.66699 17.833 15 23.5s15.333 8.5 24 8.5c10 0 18.5 -3.16699 25.5 -9.5s10.5 -14.5 10.5 -24.5c0 -7.33301 -2.33301 -15.666 -7 -24.999l-41 -79
c-6.66699 -12 -15.667 -18 -27 -18c-8 0 -14.667 2.33301 -20 7zM433 766.999c-5.33301 4.66699 -8 10.999 -8 18.999c0 4 0.333008 6.66699 1 8l27 90c2.66699 10 7.66699 17.833 15 23.5s15.333 8.5 24 8.5c10 0 18.5 -3.16699 25.5 -9.5s10.5 -14.5 10.5 -24.5
c0 -7.33301 -2.33301 -15.666 -7 -24.999l-41 -79c-6.66699 -12 -15.667 -18 -27 -18c-8 0 -14.667 2.33301 -20 7zM221 34.998c-52 30.667 -92.499 73.167 -121.499 127.5s-44.167 116.5 -45.5 186.5c1.33301 70 16.333 132 45 186
c28.667 54.667 69.667 97.334 123 128.001s114.666 46 183.999 46c70 0 131.667 -15.333 185 -46c52 -30.667 92.5 -73.334 121.5 -128.001s44.167 -116.667 45.5 -186c-1.33301 -69.333 -16.333 -131 -45 -185c-29.333 -55.333 -70.5 -98.333 -123.5 -129
s-114.167 -46 -183.5 -46c-70 0 -131.667 15.333 -185 46zM544.001 111.998c38.667 23.333 68.499 55.5 89.499 96.5s31.5 87.833 31.5 140.5c0 52 -10.333 98.667 -31 140c-21.333 42 -51.666 74.667 -90.999 98s-85 35 -137 35c-54 0 -100 -12 -138 -36
c-38.667 -23.333 -68.5 -55.5 -89.5 -96.5s-31.5 -87.833 -31.5 -140.5c0 -52 10.333 -98.667 31 -140c21.333 -42.667 51.5 -75.5 90.5 -98.5s84.833 -34.5 137.5 -34.5c54 0 100 12 138 36z" />
    <glyph glyph-name="uni004F_uni030B_uni0358.liga" unicode="O&#x30b;&#x358;" horiz-adv-x="812" 
d="M317 767c-5.33301 4.66699 -8 10.999 -8 18.999c0 4 0.333008 6.66699 1 8l27 90c2.66699 10 7.66699 17.833 15 23.5s15.333 8.5 24 8.5c10 0 18.5 -3.16699 25.5 -9.5s10.5 -14.5 10.5 -24.5c0 -7.33301 -2.33301 -15.666 -7 -24.999l-41 -79
c-6.66699 -12 -15.667 -18 -27 -18c-8 0 -14.667 2.33301 -20 7zM433 766.999c-5.33301 4.66699 -8 10.999 -8 18.999c0 4 0.333008 6.66699 1 8l27 90c2.66699 10 7.66699 17.833 15 23.5s15.333 8.5 24 8.5c10 0 18.5 -3.16699 25.5 -9.5s10.5 -14.5 10.5 -24.5
c0 -7.33301 -2.33301 -15.666 -7 -24.999l-41 -79c-6.66699 -12 -15.667 -18 -27 -18c-8 0 -14.667 2.33301 -20 7zM707.5 683.498c-10.333 10.333 -15.5 22.5 -15.5 36.5s5.16699 26.167 15.5 36.5s22.5 15.5 36.5 15.5s26.167 -5.16699 36.5 -15.5s15.5 -22.5 15.5 -36.5
s-5.16699 -26.167 -15.5 -36.5s-22.5 -15.5 -36.5 -15.5s-26.167 5.16699 -36.5 15.5zM221 34.998c-52 30.667 -92.499 73.167 -121.499 127.5s-44.167 116.5 -45.5 186.5c1.33301 70 16.333 132 45 186c28.667 54.667 69.667 97.334 123 128.001s114.666 46 183.999 46
c70 0 131.667 -15.333 185 -46c52 -30.667 92.5 -73.334 121.5 -128.001s44.167 -116.667 45.5 -186c-1.33301 -69.333 -16.333 -131 -45 -185c-29.333 -55.333 -70.5 -98.333 -123.5 -129s-114.167 -46 -183.5 -46c-70 0 -131.667 15.333 -185 46zM544.001 111.998
c38.667 23.333 68.499 55.5 89.499 96.5s31.5 87.833 31.5 140.5c0 52 -10.333 98.667 -31 140c-21.333 42 -51.666 74.667 -90.999 98s-85 35 -137 35c-54 0 -100 -12 -138 -36c-38.667 -23.333 -68.5 -55.5 -89.5 -96.5s-31.5 -87.833 -31.5 -140.5
c0 -52 10.333 -98.667 31 -140c21.333 -42.667 51.5 -75.5 90.5 -98.5s84.833 -34.5 137.5 -34.5c54 0 100 12 138 36z" />
    <glyph glyph-name="uni004F_uni0302.liga" unicode="O&#x302;" horiz-adv-x="812" 
d="M281.5 769.5c-6.33301 6.33301 -9.50293 13.166 -9.50293 20.499s2.66699 14.333 8 21l68 70c12.667 13.333 26.334 20 41.001 20h38c14.667 0 28.334 -6.66699 41.001 -20l68 -70c5.33301 -6.66699 8 -13.667 8 -21s-3.16699 -14.166 -9.5 -20.499
s-13.5 -9.5 -21.5 -9.5c-7.33301 0 -13.666 2.33301 -18.999 7l-78 66c-2 2.66699 -4.66699 4 -8 4c-2.66699 0 -5.33398 -1.33301 -8.00098 -4l-78 -66c-5.33301 -4.66699 -11.666 -7 -18.999 -7c-8 0 -15.167 3.16699 -21.5 9.5zM220.997 35
c-52 30.667 -92.499 73.167 -121.499 127.5s-44.167 116.5 -45.5 186.5c1.33301 70 16.333 132 45 186c28.667 54.667 69.667 97.334 123 128.001s114.666 46 183.999 46c70 0 131.667 -15.333 185 -46c52 -30.667 92.5 -73.334 121.5 -128.001s44.167 -116.667 45.5 -186
c-1.33301 -69.333 -16.333 -131 -45 -185c-29.333 -55.333 -70.5 -98.333 -123.5 -129s-114.167 -46 -183.5 -46c-70 0 -131.667 15.333 -185 46zM543.998 112c38.667 23.333 68.499 55.5 89.499 96.5s31.5 87.833 31.5 140.5c0 52 -10.333 98.667 -31 140
c-21.333 42 -51.666 74.667 -90.999 98s-85 35 -137 35c-54 0 -100 -12 -138 -36c-38.667 -23.333 -68.5 -55.5 -89.5 -96.5s-31.5 -87.833 -31.5 -140.5c0 -52 10.333 -98.667 31 -140c21.333 -42.667 51.5 -75.5 90.5 -98.5s84.833 -34.5 137.5 -34.5c54 0 100 12 138 36z
" />
    <glyph glyph-name="uni004F_uni0302_uni0358.liga" unicode="O&#x302;&#x358;" horiz-adv-x="812" 
d="M281.5 769.5c-6.33301 6.33301 -9.50293 13.166 -9.50293 20.499s2.66699 14.333 8 21l68 70c12.667 13.333 26.334 20 41.001 20h38c14.667 0 28.334 -6.66699 41.001 -20l68 -70c5.33301 -6.66699 8 -13.667 8 -21s-3.16699 -14.166 -9.5 -20.499
s-13.5 -9.5 -21.5 -9.5c-7.33301 0 -13.666 2.33301 -18.999 7l-78 66c-2 2.66699 -4.66699 4 -8 4c-2.66699 0 -5.33398 -1.33301 -8.00098 -4l-78 -66c-5.33301 -4.66699 -11.666 -7 -18.999 -7c-8 0 -15.167 3.16699 -21.5 9.5zM707.497 683.5
c-10.333 10.333 -15.5 22.5 -15.5 36.5s5.16699 26.167 15.5 36.5s22.5 15.5 36.5 15.5s26.167 -5.16699 36.5 -15.5s15.5 -22.5 15.5 -36.5s-5.16699 -26.167 -15.5 -36.5s-22.5 -15.5 -36.5 -15.5s-26.167 5.16699 -36.5 15.5zM220.997 35
c-52 30.667 -92.499 73.167 -121.499 127.5s-44.167 116.5 -45.5 186.5c1.33301 70 16.333 132 45 186c28.667 54.667 69.667 97.334 123 128.001s114.666 46 183.999 46c70 0 131.667 -15.333 185 -46c52 -30.667 92.5 -73.334 121.5 -128.001s44.167 -116.667 45.5 -186
c-1.33301 -69.333 -16.333 -131 -45 -185c-29.333 -55.333 -70.5 -98.333 -123.5 -129s-114.167 -46 -183.5 -46c-70 0 -131.667 15.333 -185 46zM543.998 112c38.667 23.333 68.499 55.5 89.499 96.5s31.5 87.833 31.5 140.5c0 52 -10.333 98.667 -31 140
c-21.333 42 -51.666 74.667 -90.999 98s-85 35 -137 35c-54 0 -100 -12 -138 -36c-38.667 -23.333 -68.5 -55.5 -89.5 -96.5s-31.5 -87.833 -31.5 -140.5c0 -52 10.333 -98.667 31 -140c21.333 -42.667 51.5 -75.5 90.5 -98.5s84.833 -34.5 137.5 -34.5c54 0 100 12 138 36z
" />
    <glyph glyph-name="uni004F_uni030C.liga" unicode="O&#x30c;" horiz-adv-x="812" 
d="M348 780l-67.9971 70c-5.33301 6.66699 -8 13.667 -8 21s3.16699 14.166 9.5 20.499s13.5 9.5 21.5 9.5c7.33301 0 13.666 -2.33301 18.999 -7l78 -66c4 -2.66699 6.66699 -4 8 -4c2.66699 0 5.33398 1.33301 8.00098 4l78 66c5.33301 4.66699 11.666 7 18.999 7
c8 0 15.167 -3.16699 21.5 -9.5s9.5 -13.166 9.5 -20.499s-2.66699 -14.333 -8 -21l-68 -70c-12.667 -13.333 -26.334 -20 -41.001 -20h-38c-14.667 0 -28.334 6.66699 -41.001 20zM221.003 35c-52 30.667 -92.499 73.167 -121.499 127.5s-44.167 116.5 -45.5 186.5
c1.33301 70 16.333 132 45 186c28.667 54.667 69.667 97.334 123 128.001s114.666 46 183.999 46c70 0 131.667 -15.333 185 -46c52 -30.667 92.5 -73.334 121.5 -128.001s44.167 -116.667 45.5 -186c-1.33301 -69.333 -16.333 -131 -45 -185
c-29.333 -55.333 -70.5 -98.333 -123.5 -129s-114.167 -46 -183.5 -46c-70 0 -131.667 15.333 -185 46zM544.004 112c38.667 23.333 68.499 55.5 89.499 96.5s31.5 87.833 31.5 140.5c0 52 -10.333 98.667 -31 140c-21.333 42 -51.666 74.667 -90.999 98s-85 35 -137 35
c-54 0 -100 -12 -138 -36c-38.667 -23.333 -68.5 -55.5 -89.5 -96.5s-31.5 -87.833 -31.5 -140.5c0 -52 10.333 -98.667 31 -140c21.333 -42.667 51.5 -75.5 90.5 -98.5s84.833 -34.5 137.5 -34.5c54 0 100 12 138 36z" />
    <glyph glyph-name="uni004F_uni030C_uni0358.liga" unicode="O&#x30c;&#x358;" horiz-adv-x="812" 
d="M348 780l-67.9971 70c-5.33301 6.66699 -8 13.667 -8 21s3.16699 14.166 9.5 20.499s13.5 9.5 21.5 9.5c7.33301 0 13.666 -2.33301 18.999 -7l78 -66c4 -2.66699 6.66699 -4 8 -4c2.66699 0 5.33398 1.33301 8.00098 4l78 66c5.33301 4.66699 11.666 7 18.999 7
c8 0 15.167 -3.16699 21.5 -9.5s9.5 -13.166 9.5 -20.499s-2.66699 -14.333 -8 -21l-68 -70c-12.667 -13.333 -26.334 -20 -41.001 -20h-38c-14.667 0 -28.334 6.66699 -41.001 20zM707.503 683.5c-10.333 10.333 -15.5 22.5 -15.5 36.5s5.16699 26.167 15.5 36.5
s22.5 15.5 36.5 15.5s26.167 -5.16699 36.5 -15.5s15.5 -22.5 15.5 -36.5s-5.16699 -26.167 -15.5 -36.5s-22.5 -15.5 -36.5 -15.5s-26.167 5.16699 -36.5 15.5zM221.003 35c-52 30.667 -92.499 73.167 -121.499 127.5s-44.167 116.5 -45.5 186.5
c1.33301 70 16.333 132 45 186c28.667 54.667 69.667 97.334 123 128.001s114.666 46 183.999 46c70 0 131.667 -15.333 185 -46c52 -30.667 92.5 -73.334 121.5 -128.001s44.167 -116.667 45.5 -186c-1.33301 -69.333 -16.333 -131 -45 -185
c-29.333 -55.333 -70.5 -98.333 -123.5 -129s-114.167 -46 -183.5 -46c-70 0 -131.667 15.333 -185 46zM544.004 112c38.667 23.333 68.499 55.5 89.499 96.5s31.5 87.833 31.5 140.5c0 52 -10.333 98.667 -31 140c-21.333 42 -51.666 74.667 -90.999 98s-85 35 -137 35
c-54 0 -100 -12 -138 -36c-38.667 -23.333 -68.5 -55.5 -89.5 -96.5s-31.5 -87.833 -31.5 -140.5c0 -52 10.333 -98.667 31 -140c21.333 -42.667 51.5 -75.5 90.5 -98.5s84.833 -34.5 137.5 -34.5c54 0 100 12 138 36z" />
    <glyph glyph-name="uni004F_uni0306.liga" unicode="O&#x306;" horiz-adv-x="812" 
d="M322 771.5c-25.333 14.333 -43.6641 34.5 -54.9971 60.5c-2 4 -3 8.66699 -3 14c0 8.66699 3 16.167 9 22.5s13.667 9.5 23 9.5c13.333 0 23 -6.66699 29 -20c7.33301 -15.333 18.166 -27.166 32.499 -35.499s31.166 -12.5 50.499 -12.5s36.166 4.16699 50.499 12.5
s25.166 20.166 32.499 35.499c6 13.333 15.667 20 29 20c9.33301 0 17 -3.16699 23 -9.5s9 -13.833 9 -22.5c0 -5.33301 -1 -10 -3 -14c-11.333 -26 -29.666 -46.167 -54.999 -60.5s-54 -21.5 -86 -21.5s-60.667 7.16699 -86 21.5zM221.002 35
c-52 30.667 -92.499 73.167 -121.499 127.5s-44.167 116.5 -45.5 186.5c1.33301 70 16.333 132 45 186c28.667 54.667 69.667 97.334 123 128.001s114.666 46 183.999 46c70 0 131.667 -15.333 185 -46c52 -30.667 92.5 -73.334 121.5 -128.001s44.167 -116.667 45.5 -186
c-1.33301 -69.333 -16.333 -131 -45 -185c-29.333 -55.333 -70.5 -98.333 -123.5 -129s-114.167 -46 -183.5 -46c-70 0 -131.667 15.333 -185 46zM544.003 112c38.667 23.333 68.499 55.5 89.499 96.5s31.5 87.833 31.5 140.5c0 52 -10.333 98.667 -31 140
c-21.333 42 -51.666 74.667 -90.999 98s-85 35 -137 35c-54 0 -100 -12 -138 -36c-38.667 -23.333 -68.5 -55.5 -89.5 -96.5s-31.5 -87.833 -31.5 -140.5c0 -52 10.333 -98.667 31 -140c21.333 -42.667 51.5 -75.5 90.5 -98.5s84.833 -34.5 137.5 -34.5c54 0 100 12 138 36z
" />
    <glyph glyph-name="uni004F_uni0306_uni0358.liga" unicode="O&#x306;&#x358;" horiz-adv-x="812" 
d="M322 771.5c-25.333 14.333 -43.6641 34.5 -54.9971 60.5c-2 4 -3 8.66699 -3 14c0 8.66699 3 16.167 9 22.5s13.667 9.5 23 9.5c13.333 0 23 -6.66699 29 -20c7.33301 -15.333 18.166 -27.166 32.499 -35.499s31.166 -12.5 50.499 -12.5s36.166 4.16699 50.499 12.5
s25.166 20.166 32.499 35.499c6 13.333 15.667 20 29 20c9.33301 0 17 -3.16699 23 -9.5s9 -13.833 9 -22.5c0 -5.33301 -1 -10 -3 -14c-11.333 -26 -29.666 -46.167 -54.999 -60.5s-54 -21.5 -86 -21.5s-60.667 7.16699 -86 21.5zM707.502 683.5
c-10.333 10.333 -15.5 22.5 -15.5 36.5s5.16699 26.167 15.5 36.5s22.5 15.5 36.5 15.5s26.167 -5.16699 36.5 -15.5s15.5 -22.5 15.5 -36.5s-5.16699 -26.167 -15.5 -36.5s-22.5 -15.5 -36.5 -15.5s-26.167 5.16699 -36.5 15.5zM221.002 35
c-52 30.667 -92.499 73.167 -121.499 127.5s-44.167 116.5 -45.5 186.5c1.33301 70 16.333 132 45 186c28.667 54.667 69.667 97.334 123 128.001s114.666 46 183.999 46c70 0 131.667 -15.333 185 -46c52 -30.667 92.5 -73.334 121.5 -128.001s44.167 -116.667 45.5 -186
c-1.33301 -69.333 -16.333 -131 -45 -185c-29.333 -55.333 -70.5 -98.333 -123.5 -129s-114.167 -46 -183.5 -46c-70 0 -131.667 15.333 -185 46zM544.003 112c38.667 23.333 68.499 55.5 89.499 96.5s31.5 87.833 31.5 140.5c0 52 -10.333 98.667 -31 140
c-21.333 42 -51.666 74.667 -90.999 98s-85 35 -137 35c-54 0 -100 -12 -138 -36c-38.667 -23.333 -68.5 -55.5 -89.5 -96.5s-31.5 -87.833 -31.5 -140.5c0 -52 10.333 -98.667 31 -140c21.333 -42.667 51.5 -75.5 90.5 -98.5s84.833 -34.5 137.5 -34.5c54 0 100 12 138 36z
" />
    <glyph glyph-name="O_tildecomb.liga" unicode="O&#x303;" horiz-adv-x="812" 
d="M261.5 761c-5 4.66699 -7.49805 10.3359 -7.49805 17.0029c0 23.333 8.33301 45.166 25 65.499s36.667 30.5 60 30.5c12.667 0 24.667 -1.83301 36 -5.5s26 -9.83398 44 -18.501c17.333 -8.66699 31.166 -14.667 41.499 -18s21.166 -5 32.499 -5
c8.66699 0 15.834 2 21.501 6s10.5 10.667 14.5 20c5.33301 14.667 14 22 26 22c6.66699 0 12.167 -2.16699 16.5 -6.5s6.83301 -9.83301 7.5 -16.5c0 -24.667 -8.33301 -46.834 -25 -66.501s-36.667 -29.5 -60 -29.5c-12 0 -23.5 1.83301 -34.5 5.5
s-26.833 10.167 -47.5 19.5c-17.333 8.66699 -31 14.667 -41 18s-20.333 5 -31 5c-16.667 0 -29.334 -10.333 -38.001 -31c-4 -12.667 -12 -19 -24 -19c-6 0 -11.5 2.33301 -16.5 7zM221.002 35.002c-52 30.667 -92.499 73.167 -121.499 127.5s-44.167 116.5 -45.5 186.5
c1.33301 70 16.333 132 45 186c28.667 54.667 69.667 97.334 123 128.001s114.666 46 183.999 46c70 0 131.667 -15.333 185 -46c52 -30.667 92.5 -73.334 121.5 -128.001s44.167 -116.667 45.5 -186c-1.33301 -69.333 -16.333 -131 -45 -185
c-29.333 -55.333 -70.5 -98.333 -123.5 -129s-114.167 -46 -183.5 -46c-70 0 -131.667 15.333 -185 46zM544.003 112.002c38.667 23.333 68.499 55.5 89.499 96.5s31.5 87.833 31.5 140.5c0 52 -10.333 98.667 -31 140c-21.333 42 -51.666 74.667 -90.999 98s-85 35 -137 35
c-54 0 -100 -12 -138 -36c-38.667 -23.333 -68.5 -55.5 -89.5 -96.5s-31.5 -87.833 -31.5 -140.5c0 -52 10.333 -98.667 31 -140c21.333 -42.667 51.5 -75.5 90.5 -98.5s84.833 -34.5 137.5 -34.5c54 0 100 12 138 36z" />
    <glyph glyph-name="uni004F_uni0304.liga" unicode="O&#x304;" horiz-adv-x="812" 
d="M269 789c-6 6 -9 13.333 -9 22s3 16 9 22s13.333 9 22 9h234c8.66699 0 16 -3 22 -9s9 -13.333 9 -22s-3 -16 -9 -22s-13.333 -9 -22 -9h-234c-8.66699 0 -16 3 -22 9zM221 35c-52 30.667 -92.499 73.167 -121.499 127.5s-44.167 116.5 -45.5 186.5
c1.33301 70 16.333 132 45 186c28.667 54.667 69.667 97.334 123 128.001s114.666 46 183.999 46c70 0 131.667 -15.333 185 -46c52 -30.667 92.5 -73.334 121.5 -128.001s44.167 -116.667 45.5 -186c-1.33301 -69.333 -16.333 -131 -45 -185
c-29.333 -55.333 -70.5 -98.333 -123.5 -129s-114.167 -46 -183.5 -46c-70 0 -131.667 15.333 -185 46zM544.001 112c38.667 23.333 68.499 55.5 89.499 96.5s31.5 87.833 31.5 140.5c0 52 -10.333 98.667 -31 140c-21.333 42 -51.666 74.667 -90.999 98s-85 35 -137 35
c-54 0 -100 -12 -138 -36c-38.667 -23.333 -68.5 -55.5 -89.5 -96.5s-31.5 -87.833 -31.5 -140.5c0 -52 10.333 -98.667 31 -140c21.333 -42.667 51.5 -75.5 90.5 -98.5s84.833 -34.5 137.5 -34.5c54 0 100 12 138 36z" />
    <glyph glyph-name="uni004F_uni0304_uni0358.liga" unicode="O&#x304;&#x358;" horiz-adv-x="812" 
d="M269 789c-6 6 -9 13.333 -9 22s3 16 9 22s13.333 9 22 9h234c8.66699 0 16 -3 22 -9s9 -13.333 9 -22s-3 -16 -9 -22s-13.333 -9 -22 -9h-234c-8.66699 0 -16 3 -22 9zM707.5 683.5c-10.333 10.333 -15.5 22.5 -15.5 36.5s5.16699 26.167 15.5 36.5s22.5 15.5 36.5 15.5
s26.167 -5.16699 36.5 -15.5s15.5 -22.5 15.5 -36.5s-5.16699 -26.167 -15.5 -36.5s-22.5 -15.5 -36.5 -15.5s-26.167 5.16699 -36.5 15.5zM221 35c-52 30.667 -92.499 73.167 -121.499 127.5s-44.167 116.5 -45.5 186.5c1.33301 70 16.333 132 45 186
c28.667 54.667 69.667 97.334 123 128.001s114.666 46 183.999 46c70 0 131.667 -15.333 185 -46c52 -30.667 92.5 -73.334 121.5 -128.001s44.167 -116.667 45.5 -186c-1.33301 -69.333 -16.333 -131 -45 -185c-29.333 -55.333 -70.5 -98.333 -123.5 -129
s-114.167 -46 -183.5 -46c-70 0 -131.667 15.333 -185 46zM544.001 112c38.667 23.333 68.499 55.5 89.499 96.5s31.5 87.833 31.5 140.5c0 52 -10.333 98.667 -31 140c-21.333 42 -51.666 74.667 -90.999 98s-85 35 -137 35c-54 0 -100 -12 -138 -36
c-38.667 -23.333 -68.5 -55.5 -89.5 -96.5s-31.5 -87.833 -31.5 -140.5c0 -52 10.333 -98.667 31 -140c21.333 -42.667 51.5 -75.5 90.5 -98.5s84.833 -34.5 137.5 -34.5c54 0 100 12 138 36z" />
    <glyph glyph-name="uni004F_uni030D.liga" unicode="O&#x30d;" horiz-adv-x="812" 
d="M380.5 941c6.33301 6.66699 15.5 10 27.5 10c11.333 0 20.333 -3.16699 27 -9.5s10 -15.5 10 -27.5v-117c0 -11.333 -3.16699 -20.333 -9.5 -27s-15.5 -10 -27.5 -10c-11.333 0 -20.333 3.16699 -27 9.5s-10 15.5 -10 27.5v117c0 11.333 3.16699 20.333 9.5 27zM221 35
c-52 30.667 -92.499 73.167 -121.499 127.5s-44.167 116.5 -45.5 186.5c1.33301 70 16.333 132 45 186c28.667 54.667 69.667 97.334 123 128.001s114.666 46 183.999 46c70 0 131.667 -15.333 185 -46c52 -30.667 92.5 -73.334 121.5 -128.001s44.167 -116.667 45.5 -186
c-1.33301 -69.333 -16.333 -131 -45 -185c-29.333 -55.333 -70.5 -98.333 -123.5 -129s-114.167 -46 -183.5 -46c-70 0 -131.667 15.333 -185 46zM544.001 112c38.667 23.333 68.499 55.5 89.499 96.5s31.5 87.833 31.5 140.5c0 52 -10.333 98.667 -31 140
c-21.333 42 -51.666 74.667 -90.999 98s-85 35 -137 35c-54 0 -100 -12 -138 -36c-38.667 -23.333 -68.5 -55.5 -89.5 -96.5s-31.5 -87.833 -31.5 -140.5c0 -52 10.333 -98.667 31 -140c21.333 -42.667 51.5 -75.5 90.5 -98.5s84.833 -34.5 137.5 -34.5c54 0 100 12 138 36z
" />
    <glyph glyph-name="uni004F_uni030D_uni0358.liga" unicode="O&#x30d;&#x358;" horiz-adv-x="812" 
d="M380.5 941c6.33301 6.66699 15.5 10 27.5 10c11.333 0 20.333 -3.16699 27 -9.5s10 -15.5 10 -27.5v-117c0 -11.333 -3.16699 -20.333 -9.5 -27s-15.5 -10 -27.5 -10c-11.333 0 -20.333 3.16699 -27 9.5s-10 15.5 -10 27.5v117c0 11.333 3.16699 20.333 9.5 27z
M707.5 683.5c-10.333 10.333 -15.5 22.5 -15.5 36.5s5.16699 26.167 15.5 36.5s22.5 15.5 36.5 15.5s26.167 -5.16699 36.5 -15.5s15.5 -22.5 15.5 -36.5s-5.16699 -26.167 -15.5 -36.5s-22.5 -15.5 -36.5 -15.5s-26.167 5.16699 -36.5 15.5zM221 35
c-52 30.667 -92.499 73.167 -121.499 127.5s-44.167 116.5 -45.5 186.5c1.33301 70 16.333 132 45 186c28.667 54.667 69.667 97.334 123 128.001s114.666 46 183.999 46c70 0 131.667 -15.333 185 -46c52 -30.667 92.5 -73.334 121.5 -128.001s44.167 -116.667 45.5 -186
c-1.33301 -69.333 -16.333 -131 -45 -185c-29.333 -55.333 -70.5 -98.333 -123.5 -129s-114.167 -46 -183.5 -46c-70 0 -131.667 15.333 -185 46zM544.001 112c38.667 23.333 68.499 55.5 89.499 96.5s31.5 87.833 31.5 140.5c0 52 -10.333 98.667 -31 140
c-21.333 42 -51.666 74.667 -90.999 98s-85 35 -137 35c-54 0 -100 -12 -138 -36c-38.667 -23.333 -68.5 -55.5 -89.5 -96.5s-31.5 -87.833 -31.5 -140.5c0 -52 10.333 -98.667 31 -140c21.333 -42.667 51.5 -75.5 90.5 -98.5s84.833 -34.5 137.5 -34.5c54 0 100 12 138 36z
" />
    <glyph glyph-name="uni004F_uni0358.liga" unicode="O&#x358;" horiz-adv-x="812" 
d="M707.5 683.5c-10.333 10.333 -15.5 22.5 -15.5 36.5s5.16699 26.167 15.5 36.5s22.5 15.5 36.5 15.5s26.167 -5.16699 36.5 -15.5s15.5 -22.5 15.5 -36.5s-5.16699 -26.167 -15.5 -36.5s-22.5 -15.5 -36.5 -15.5s-26.167 5.16699 -36.5 15.5zM221 35
c-52 30.667 -92.499 73.167 -121.499 127.5s-44.167 116.5 -45.5 186.5c1.33301 70 16.333 132 45 186c28.667 54.667 69.667 97.334 123 128.001s114.666 46 183.999 46c70 0 131.667 -15.333 185 -46c52 -30.667 92.5 -73.334 121.5 -128.001s44.167 -116.667 45.5 -186
c-1.33301 -69.333 -16.333 -131 -45 -185c-29.333 -55.333 -70.5 -98.333 -123.5 -129s-114.167 -46 -183.5 -46c-70 0 -131.667 15.333 -185 46zM544.001 112c38.667 23.333 68.499 55.5 89.499 96.5s31.5 87.833 31.5 140.5c0 52 -10.333 98.667 -31 140
c-21.333 42 -51.666 74.667 -90.999 98s-85 35 -137 35c-54 0 -100 -12 -138 -36c-38.667 -23.333 -68.5 -55.5 -89.5 -96.5s-31.5 -87.833 -31.5 -140.5c0 -52 10.333 -98.667 31 -140c21.333 -42.667 51.5 -75.5 90.5 -98.5s84.833 -34.5 137.5 -34.5c54 0 100 12 138 36z
" />
    <glyph glyph-name="uni004F_uni0358_uni0301.liga" unicode="O&#x358;&#x301;" horiz-adv-x="812" 
d="M388 757.5c-5.33301 5 -8 11.834 -8 20.501c0 5.33301 2.33301 12 7 20l51 89c6.66699 13.333 18 20 34 20c10.667 0 19.667 -3.5 27 -10.5s11 -16.167 11 -27.5c0 -10.667 -3.33301 -19.334 -10 -26.001l-69 -82c-6 -7.33301 -13.667 -11 -23 -11
c-8 0 -14.667 2.5 -20 7.5zM707.5 683.501c-10.333 10.333 -15.5 22.5 -15.5 36.5s5.16699 26.167 15.5 36.5s22.5 15.5 36.5 15.5s26.167 -5.16699 36.5 -15.5s15.5 -22.5 15.5 -36.5s-5.16699 -26.167 -15.5 -36.5s-22.5 -15.5 -36.5 -15.5s-26.167 5.16699 -36.5 15.5z
M221 35.001c-52 30.667 -92.499 73.167 -121.499 127.5s-44.167 116.5 -45.5 186.5c1.33301 70 16.333 132 45 186c28.667 54.667 69.667 97.334 123 128.001s114.666 46 183.999 46c70 0 131.667 -15.333 185 -46c52 -30.667 92.5 -73.334 121.5 -128.001
s44.167 -116.667 45.5 -186c-1.33301 -69.333 -16.333 -131 -45 -185c-29.333 -55.333 -70.5 -98.333 -123.5 -129s-114.167 -46 -183.5 -46c-70 0 -131.667 15.333 -185 46zM544.001 112.001c38.667 23.333 68.499 55.5 89.499 96.5s31.5 87.833 31.5 140.5
c0 52 -10.333 98.667 -31 140c-21.333 42 -51.666 74.667 -90.999 98s-85 35 -137 35c-54 0 -100 -12 -138 -36c-38.667 -23.333 -68.5 -55.5 -89.5 -96.5s-31.5 -87.833 -31.5 -140.5c0 -52 10.333 -98.667 31 -140c21.333 -42.667 51.5 -75.5 90.5 -98.5
s84.833 -34.5 137.5 -34.5c54 0 100 12 138 36z" />
    <glyph glyph-name="uni004F_uni0358_uni030B.liga" unicode="O&#x358;&#x30b;" horiz-adv-x="812" 
d="M317 767c-5.33301 4.66699 -8 10.999 -8 18.999c0 4 0.333008 6.66699 1 8l27 90c2.66699 10 7.66699 17.833 15 23.5s15.333 8.5 24 8.5c10 0 18.5 -3.16699 25.5 -9.5s10.5 -14.5 10.5 -24.5c0 -7.33301 -2.33301 -15.666 -7 -24.999l-41 -79
c-6.66699 -12 -15.667 -18 -27 -18c-8 0 -14.667 2.33301 -20 7zM433 766.999c-5.33301 4.66699 -8 10.999 -8 18.999c0 4 0.333008 6.66699 1 8l27 90c2.66699 10 7.66699 17.833 15 23.5s15.333 8.5 24 8.5c10 0 18.5 -3.16699 25.5 -9.5s10.5 -14.5 10.5 -24.5
c0 -7.33301 -2.33301 -15.666 -7 -24.999l-41 -79c-6.66699 -12 -15.667 -18 -27 -18c-8 0 -14.667 2.33301 -20 7zM707.5 683.498c-10.333 10.333 -15.5 22.5 -15.5 36.5s5.16699 26.167 15.5 36.5s22.5 15.5 36.5 15.5s26.167 -5.16699 36.5 -15.5s15.5 -22.5 15.5 -36.5
s-5.16699 -26.167 -15.5 -36.5s-22.5 -15.5 -36.5 -15.5s-26.167 5.16699 -36.5 15.5zM221 34.998c-52 30.667 -92.499 73.167 -121.499 127.5s-44.167 116.5 -45.5 186.5c1.33301 70 16.333 132 45 186c28.667 54.667 69.667 97.334 123 128.001s114.666 46 183.999 46
c70 0 131.667 -15.333 185 -46c52 -30.667 92.5 -73.334 121.5 -128.001s44.167 -116.667 45.5 -186c-1.33301 -69.333 -16.333 -131 -45 -185c-29.333 -55.333 -70.5 -98.333 -123.5 -129s-114.167 -46 -183.5 -46c-70 0 -131.667 15.333 -185 46zM544.001 111.998
c38.667 23.333 68.499 55.5 89.499 96.5s31.5 87.833 31.5 140.5c0 52 -10.333 98.667 -31 140c-21.333 42 -51.666 74.667 -90.999 98s-85 35 -137 35c-54 0 -100 -12 -138 -36c-38.667 -23.333 -68.5 -55.5 -89.5 -96.5s-31.5 -87.833 -31.5 -140.5
c0 -52 10.333 -98.667 31 -140c21.333 -42.667 51.5 -75.5 90.5 -98.5s84.833 -34.5 137.5 -34.5c54 0 100 12 138 36z" />
    <glyph glyph-name="uni004F_uni0358_uni0302.liga" unicode="O&#x358;&#x302;" horiz-adv-x="812" 
d="M281.5 769.5c-6.33301 6.33301 -9.50293 13.166 -9.50293 20.499s2.66699 14.333 8 21l68 70c12.667 13.333 26.334 20 41.001 20h38c14.667 0 28.334 -6.66699 41.001 -20l68 -70c5.33301 -6.66699 8 -13.667 8 -21s-3.16699 -14.166 -9.5 -20.499
s-13.5 -9.5 -21.5 -9.5c-7.33301 0 -13.666 2.33301 -18.999 7l-78 66c-2 2.66699 -4.66699 4 -8 4c-2.66699 0 -5.33398 -1.33301 -8.00098 -4l-78 -66c-5.33301 -4.66699 -11.666 -7 -18.999 -7c-8 0 -15.167 3.16699 -21.5 9.5zM707.497 683.5
c-10.333 10.333 -15.5 22.5 -15.5 36.5s5.16699 26.167 15.5 36.5s22.5 15.5 36.5 15.5s26.167 -5.16699 36.5 -15.5s15.5 -22.5 15.5 -36.5s-5.16699 -26.167 -15.5 -36.5s-22.5 -15.5 -36.5 -15.5s-26.167 5.16699 -36.5 15.5zM220.997 35
c-52 30.667 -92.499 73.167 -121.499 127.5s-44.167 116.5 -45.5 186.5c1.33301 70 16.333 132 45 186c28.667 54.667 69.667 97.334 123 128.001s114.666 46 183.999 46c70 0 131.667 -15.333 185 -46c52 -30.667 92.5 -73.334 121.5 -128.001s44.167 -116.667 45.5 -186
c-1.33301 -69.333 -16.333 -131 -45 -185c-29.333 -55.333 -70.5 -98.333 -123.5 -129s-114.167 -46 -183.5 -46c-70 0 -131.667 15.333 -185 46zM543.998 112c38.667 23.333 68.499 55.5 89.499 96.5s31.5 87.833 31.5 140.5c0 52 -10.333 98.667 -31 140
c-21.333 42 -51.666 74.667 -90.999 98s-85 35 -137 35c-54 0 -100 -12 -138 -36c-38.667 -23.333 -68.5 -55.5 -89.5 -96.5s-31.5 -87.833 -31.5 -140.5c0 -52 10.333 -98.667 31 -140c21.333 -42.667 51.5 -75.5 90.5 -98.5s84.833 -34.5 137.5 -34.5c54 0 100 12 138 36z
" />
    <glyph glyph-name="uni004F_uni0358_uni030C.liga" unicode="O&#x358;&#x30c;" horiz-adv-x="812" 
d="M348 780l-67.9971 70c-5.33301 6.66699 -8 13.667 -8 21s3.16699 14.166 9.5 20.499s13.5 9.5 21.5 9.5c7.33301 0 13.666 -2.33301 18.999 -7l78 -66c4 -2.66699 6.66699 -4 8 -4c2.66699 0 5.33398 1.33301 8.00098 4l78 66c5.33301 4.66699 11.666 7 18.999 7
c8 0 15.167 -3.16699 21.5 -9.5s9.5 -13.166 9.5 -20.499s-2.66699 -14.333 -8 -21l-68 -70c-12.667 -13.333 -26.334 -20 -41.001 -20h-38c-14.667 0 -28.334 6.66699 -41.001 20zM707.503 683.5c-10.333 10.333 -15.5 22.5 -15.5 36.5s5.16699 26.167 15.5 36.5
s22.5 15.5 36.5 15.5s26.167 -5.16699 36.5 -15.5s15.5 -22.5 15.5 -36.5s-5.16699 -26.167 -15.5 -36.5s-22.5 -15.5 -36.5 -15.5s-26.167 5.16699 -36.5 15.5zM221.003 35c-52 30.667 -92.499 73.167 -121.499 127.5s-44.167 116.5 -45.5 186.5
c1.33301 70 16.333 132 45 186c28.667 54.667 69.667 97.334 123 128.001s114.666 46 183.999 46c70 0 131.667 -15.333 185 -46c52 -30.667 92.5 -73.334 121.5 -128.001s44.167 -116.667 45.5 -186c-1.33301 -69.333 -16.333 -131 -45 -185
c-29.333 -55.333 -70.5 -98.333 -123.5 -129s-114.167 -46 -183.5 -46c-70 0 -131.667 15.333 -185 46zM544.004 112c38.667 23.333 68.499 55.5 89.499 96.5s31.5 87.833 31.5 140.5c0 52 -10.333 98.667 -31 140c-21.333 42 -51.666 74.667 -90.999 98s-85 35 -137 35
c-54 0 -100 -12 -138 -36c-38.667 -23.333 -68.5 -55.5 -89.5 -96.5s-31.5 -87.833 -31.5 -140.5c0 -52 10.333 -98.667 31 -140c21.333 -42.667 51.5 -75.5 90.5 -98.5s84.833 -34.5 137.5 -34.5c54 0 100 12 138 36z" />
    <glyph glyph-name="uni004F_uni0358_uni0306.liga" unicode="O&#x358;&#x306;" horiz-adv-x="812" 
d="M322 771.5c-25.333 14.333 -43.6641 34.5 -54.9971 60.5c-2 4 -3 8.66699 -3 14c0 8.66699 3 16.167 9 22.5s13.667 9.5 23 9.5c13.333 0 23 -6.66699 29 -20c7.33301 -15.333 18.166 -27.166 32.499 -35.499s31.166 -12.5 50.499 -12.5s36.166 4.16699 50.499 12.5
s25.166 20.166 32.499 35.499c6 13.333 15.667 20 29 20c9.33301 0 17 -3.16699 23 -9.5s9 -13.833 9 -22.5c0 -5.33301 -1 -10 -3 -14c-11.333 -26 -29.666 -46.167 -54.999 -60.5s-54 -21.5 -86 -21.5s-60.667 7.16699 -86 21.5zM707.502 683.5
c-10.333 10.333 -15.5 22.5 -15.5 36.5s5.16699 26.167 15.5 36.5s22.5 15.5 36.5 15.5s26.167 -5.16699 36.5 -15.5s15.5 -22.5 15.5 -36.5s-5.16699 -26.167 -15.5 -36.5s-22.5 -15.5 -36.5 -15.5s-26.167 5.16699 -36.5 15.5zM221.002 35
c-52 30.667 -92.499 73.167 -121.499 127.5s-44.167 116.5 -45.5 186.5c1.33301 70 16.333 132 45 186c28.667 54.667 69.667 97.334 123 128.001s114.666 46 183.999 46c70 0 131.667 -15.333 185 -46c52 -30.667 92.5 -73.334 121.5 -128.001s44.167 -116.667 45.5 -186
c-1.33301 -69.333 -16.333 -131 -45 -185c-29.333 -55.333 -70.5 -98.333 -123.5 -129s-114.167 -46 -183.5 -46c-70 0 -131.667 15.333 -185 46zM544.003 112c38.667 23.333 68.499 55.5 89.499 96.5s31.5 87.833 31.5 140.5c0 52 -10.333 98.667 -31 140
c-21.333 42 -51.666 74.667 -90.999 98s-85 35 -137 35c-54 0 -100 -12 -138 -36c-38.667 -23.333 -68.5 -55.5 -89.5 -96.5s-31.5 -87.833 -31.5 -140.5c0 -52 10.333 -98.667 31 -140c21.333 -42.667 51.5 -75.5 90.5 -98.5s84.833 -34.5 137.5 -34.5c54 0 100 12 138 36z
" />
    <glyph glyph-name="uni004F_uni0358_uni0304.liga" unicode="O&#x358;&#x304;" horiz-adv-x="812" 
d="M269 789c-6 6 -9 13.333 -9 22s3 16 9 22s13.333 9 22 9h234c8.66699 0 16 -3 22 -9s9 -13.333 9 -22s-3 -16 -9 -22s-13.333 -9 -22 -9h-234c-8.66699 0 -16 3 -22 9zM707.5 683.5c-10.333 10.333 -15.5 22.5 -15.5 36.5s5.16699 26.167 15.5 36.5s22.5 15.5 36.5 15.5
s26.167 -5.16699 36.5 -15.5s15.5 -22.5 15.5 -36.5s-5.16699 -26.167 -15.5 -36.5s-22.5 -15.5 -36.5 -15.5s-26.167 5.16699 -36.5 15.5zM221 35c-52 30.667 -92.499 73.167 -121.499 127.5s-44.167 116.5 -45.5 186.5c1.33301 70 16.333 132 45 186
c28.667 54.667 69.667 97.334 123 128.001s114.666 46 183.999 46c70 0 131.667 -15.333 185 -46c52 -30.667 92.5 -73.334 121.5 -128.001s44.167 -116.667 45.5 -186c-1.33301 -69.333 -16.333 -131 -45 -185c-29.333 -55.333 -70.5 -98.333 -123.5 -129
s-114.167 -46 -183.5 -46c-70 0 -131.667 15.333 -185 46zM544.001 112c38.667 23.333 68.499 55.5 89.499 96.5s31.5 87.833 31.5 140.5c0 52 -10.333 98.667 -31 140c-21.333 42 -51.666 74.667 -90.999 98s-85 35 -137 35c-54 0 -100 -12 -138 -36
c-38.667 -23.333 -68.5 -55.5 -89.5 -96.5s-31.5 -87.833 -31.5 -140.5c0 -52 10.333 -98.667 31 -140c21.333 -42.667 51.5 -75.5 90.5 -98.5s84.833 -34.5 137.5 -34.5c54 0 100 12 138 36z" />
    <glyph glyph-name="uni004F_uni0358_uni030D.liga" unicode="O&#x358;&#x30d;" horiz-adv-x="812" 
d="M380.5 941c6.33301 6.66699 15.5 10 27.5 10c11.333 0 20.333 -3.16699 27 -9.5s10 -15.5 10 -27.5v-117c0 -11.333 -3.16699 -20.333 -9.5 -27s-15.5 -10 -27.5 -10c-11.333 0 -20.333 3.16699 -27 9.5s-10 15.5 -10 27.5v117c0 11.333 3.16699 20.333 9.5 27z
M707.5 683.5c-10.333 10.333 -15.5 22.5 -15.5 36.5s5.16699 26.167 15.5 36.5s22.5 15.5 36.5 15.5s26.167 -5.16699 36.5 -15.5s15.5 -22.5 15.5 -36.5s-5.16699 -26.167 -15.5 -36.5s-22.5 -15.5 -36.5 -15.5s-26.167 5.16699 -36.5 15.5zM221 35
c-52 30.667 -92.499 73.167 -121.499 127.5s-44.167 116.5 -45.5 186.5c1.33301 70 16.333 132 45 186c28.667 54.667 69.667 97.334 123 128.001s114.666 46 183.999 46c70 0 131.667 -15.333 185 -46c52 -30.667 92.5 -73.334 121.5 -128.001s44.167 -116.667 45.5 -186
c-1.33301 -69.333 -16.333 -131 -45 -185c-29.333 -55.333 -70.5 -98.333 -123.5 -129s-114.167 -46 -183.5 -46c-70 0 -131.667 15.333 -185 46zM544.001 112c38.667 23.333 68.499 55.5 89.499 96.5s31.5 87.833 31.5 140.5c0 52 -10.333 98.667 -31 140
c-21.333 42 -51.666 74.667 -90.999 98s-85 35 -137 35c-54 0 -100 -12 -138 -36c-38.667 -23.333 -68.5 -55.5 -89.5 -96.5s-31.5 -87.833 -31.5 -140.5c0 -52 10.333 -98.667 31 -140c21.333 -42.667 51.5 -75.5 90.5 -98.5s84.833 -34.5 137.5 -34.5c54 0 100 12 138 36z
" />
    <glyph glyph-name="uni0055_uni030B.liga" unicode="U&#x30b;" horiz-adv-x="758" 
d="M288 749c-5.33301 4.66699 -8 10.999 -8 18.999c0 4 0.333008 6.66699 1 8l27 90c2.66699 10 7.66699 17.833 15 23.5s15.333 8.5 24 8.5c10 0 18.5 -3.16699 25.5 -9.5s10.5 -14.5 10.5 -24.5c0 -7.33301 -2.33301 -15.666 -7 -24.999l-41 -79
c-6.66699 -12 -15.667 -18 -27 -18c-8 0 -14.667 2.33301 -20 7zM404 748.999c-5.33301 4.66699 -8 10.999 -8 18.999c0 4 0.333008 6.66699 1 8l27 90c2.66699 10 7.66699 17.833 15 23.5s15.333 8.5 24 8.5c10 0 18.5 -3.16699 25.5 -9.5s10.5 -14.5 10.5 -24.5
c0 -7.33301 -2.33301 -15.666 -7 -24.999l-41 -79c-6.66699 -12 -15.667 -18 -27 -18c-8 0 -14.667 2.33301 -20 7zM242 18.998c-46 20.667 -82.667 52 -110 94s-41 91.667 -41 149v395c0 12.667 4.5 23.667 13.5 33s19.833 14 32.5 14s23.667 -4.66699 33 -14
s14 -20.333 14 -33v-398c0 -40.667 9.33301 -74.334 28 -101.001c17.333 -27.333 40.833 -48.166 70.5 -62.499s61.834 -21.5 96.501 -21.5c34 0 66 7 96 21c31.333 14.667 55.666 36.167 72.999 64.5s26 61.5 26 99.5v398c0 12.667 4.5 23.667 13.5 33s19.833 14 32.5 14
s23.667 -4.66699 33 -14s14 -20.333 14 -33v-395c0 -58.667 -14 -109 -42 -151c-27.333 -40 -62.833 -70.333 -106.5 -91s-90.167 -31 -139.5 -31c-48 0 -93.667 10 -137 30z" />
    <glyph glyph-name="U_tildecomb.liga" unicode="U&#x303;" horiz-adv-x="758" 
d="M232.5 743c-5 4.66699 -7.49609 10.3359 -7.49609 17.0029c0 23.333 8.33301 45.166 25 65.499s36.667 30.5 60 30.5c12.667 0 24.667 -1.83301 36 -5.5s26 -9.83398 44 -18.501c17.333 -8.66699 31.166 -14.667 41.499 -18s21.166 -5 32.499 -5
c8.66699 0 15.834 2 21.501 6s10.5 10.667 14.5 20c5.33301 14.667 14 22 26 22c6.66699 0 12.167 -2.16699 16.5 -6.5s6.83301 -9.83301 7.5 -16.5c0 -24.667 -8.33301 -46.834 -25 -66.501s-36.667 -29.5 -60 -29.5c-12.667 0 -24.334 1.83301 -35.001 5.5
s-26.334 10.167 -47.001 19.5c-17.333 8.66699 -31 14.667 -41 18s-20.333 5 -31 5c-16.667 0 -29.334 -10.333 -38.001 -31c-4 -12.667 -12 -19 -24 -19c-6 0 -11.5 2.33301 -16.5 7zM242.004 19.002c-46 20.667 -82.667 52 -110 94s-41 91.667 -41 149v395
c0 12.667 4.5 23.667 13.5 33s19.833 14 32.5 14s23.667 -4.66699 33 -14s14 -20.333 14 -33v-398c0 -40.667 9.33301 -74.334 28 -101.001c17.333 -27.333 40.833 -48.166 70.5 -62.499s61.834 -21.5 96.501 -21.5c34 0 66 7 96 21
c31.333 14.667 55.666 36.167 72.999 64.5s26 61.5 26 99.5v398c0 12.667 4.5 23.667 13.5 33s19.833 14 32.5 14s23.667 -4.66699 33 -14s14 -20.333 14 -33v-395c0 -58.667 -14 -109 -42 -151c-27.333 -40 -62.833 -70.333 -106.5 -91s-90.167 -31 -139.5 -31
c-48 0 -93.667 10 -137 30z" />
    <glyph glyph-name="uni0055_uni030D.liga" unicode="U&#x30d;" horiz-adv-x="758" 
d="M351.5 923c6.33301 6.66699 15.5 10 27.5 10c11.333 0 20.333 -3.16699 27 -9.5s10 -15.5 10 -27.5v-117c0 -11.333 -3.16699 -20.333 -9.5 -27s-15.5 -10 -27.5 -10c-11.333 0 -20.333 3.16699 -27 9.5s-10 15.5 -10 27.5v117c0 11.333 3.16699 20.333 9.5 27zM242 19
c-46 20.667 -82.667 52 -110 94s-41 91.667 -41 149v395c0 12.667 4.5 23.667 13.5 33s19.833 14 32.5 14s23.667 -4.66699 33 -14s14 -20.333 14 -33v-398c0 -40.667 9.33301 -74.334 28 -101.001c17.333 -27.333 40.833 -48.166 70.5 -62.499s61.834 -21.5 96.501 -21.5
c34 0 66 7 96 21c31.333 14.667 55.666 36.167 72.999 64.5s26 61.5 26 99.5v398c0 12.667 4.5 23.667 13.5 33s19.833 14 32.5 14s23.667 -4.66699 33 -14s14 -20.333 14 -33v-395c0 -58.667 -14 -109 -42 -151c-27.333 -40 -62.833 -70.333 -106.5 -91
s-90.167 -31 -139.5 -31c-48 0 -93.667 10 -137 30z" />
    <glyph glyph-name="uni0061_uni030B.liga" unicode="a&#x30b;" horiz-adv-x="562" 
d="M188 576c-5.33301 4.66699 -8 10.999 -8 18.999c0 4 0.333008 6.66699 1 8l27 90c2.66699 10 7.66699 17.833 15 23.5s15.333 8.5 24 8.5c10 0 18.5 -3.16699 25.5 -9.5s10.5 -14.5 10.5 -24.5c0 -7.33301 -2.33301 -15.666 -7 -24.999l-41 -79
c-6.66699 -12 -15.667 -18 -27 -18c-8 0 -14.667 2.33301 -20 7zM304 575.999c-5.33301 4.66699 -8 10.999 -8 18.999c0 4 0.333008 6.66699 1 8l27 90c2.66699 10 7.66699 17.833 15 23.5s15.333 8.5 24 8.5c10 0 18.5 -3.16699 25.5 -9.5s10.5 -14.5 10.5 -24.5
c0 -7.33301 -2.33301 -15.666 -7 -24.999l-41 -79c-6.66699 -12 -15.667 -18 -27 -18c-8 0 -14.667 2.33301 -20 7zM128 6.99805c-26 12 -46.332 29.666 -60.999 52.999s-22 50 -22 80c0 52 20.167 92.167 60.5 120.5s97.166 42.5 170.499 42.5h120v7
c0 42.667 -10.5 73.834 -31.5 93.501s-54.833 29.5 -101.5 29.5c-24 0 -45.667 -1.83301 -65 -5.5s-42 -9.83398 -68 -18.501l-13 -2c-10 0 -18.833 3.83301 -26.5 11.5s-11.5 16.834 -11.5 27.501c0 18.667 9 31.667 27 39c56 24 113.667 36 173 36
c46 0 85.333 -9.33301 118 -28c30.667 -18 53.667 -41.833 69 -71.5s23 -62.5 23 -98.5v-283c0 -12.667 -4.66699 -23.5 -14 -32.5s-20.333 -13.5 -33 -13.5s-23.5 4.5 -32.5 13.5s-13.5 19.833 -13.5 32.5v24c-48 -50 -110.333 -75 -187 -75c-28.667 0 -55.667 6 -81 18z
M326.501 91.4971c27 13.667 50.167 31.5 69.5 53.5v83h-108c-100 0 -150 -26 -150 -78c0 -52.667 35 -79 105 -79c28.667 0 56.5 6.83301 83.5 20.5z" />
    <glyph glyph-name="a_tildecomb.liga" unicode="a&#x303;" horiz-adv-x="562" 
d="M132.5 597c-5 4.66699 -7.49902 10.3359 -7.49902 17.0029c0 23.333 8.33301 45.166 25 65.499s36.667 30.5 60 30.5c12.667 0 24.667 -1.83301 36 -5.5s26 -9.83398 44 -18.501c17.333 -8.66699 31.166 -14.667 41.499 -18s21.166 -5 32.499 -5
c17.333 0 29.333 8.66699 36 26c5.33301 14.667 14 22 26 22c6.66699 0 12.334 -2.16699 17.001 -6.5s7 -9.83301 7 -16.5c0 -24.667 -8.33301 -46.834 -25 -66.501s-36.667 -29.5 -60 -29.5c-12.667 0 -24.667 1.83301 -36 5.5s-26.666 10.167 -45.999 19.5
c-17.333 8.66699 -31 14.667 -41 18s-20.333 5 -31 5c-18.667 0 -31.334 -10.333 -38.001 -31c-4 -12.667 -12 -19 -24 -19c-6 0 -11.5 2.33301 -16.5 7zM128.001 7.00195c-26 12 -46.332 29.666 -60.999 52.999s-22 50 -22 80c0 52 20.167 92.167 60.5 120.5
s97.166 42.5 170.499 42.5h120v7c0 42.667 -10.5 73.834 -31.5 93.501s-54.833 29.5 -101.5 29.5c-24 0 -45.667 -1.83301 -65 -5.5s-42 -9.83398 -68 -18.501l-13 -2c-10 0 -18.833 3.83301 -26.5 11.5s-11.5 16.834 -11.5 27.501c0 18.667 9 31.667 27 39
c56 24 113.667 36 173 36c46 0 85.333 -9.33301 118 -28c30.667 -18 53.667 -41.833 69 -71.5s23 -62.5 23 -98.5v-283c0 -12.667 -4.66699 -23.5 -14 -32.5s-20.333 -13.5 -33 -13.5s-23.5 4.5 -32.5 13.5s-13.5 19.833 -13.5 32.5v24c-48 -50 -110.333 -75 -187 -75
c-28.667 0 -55.667 6 -81 18zM326.502 91.501c27 13.667 50.167 31.5 69.5 53.5v83h-108c-100 0 -150 -26 -150 -78c0 -52.667 35 -79 105 -79c28.667 0 56.5 6.83301 83.5 20.5z" />
    <glyph glyph-name="uni0061_uni030D.liga" unicode="a&#x30d;" horiz-adv-x="562" 
d="M251.5 750c6.33301 6.66699 15.5 10 27.5 10c11.333 0 20.333 -3.16699 27 -9.5s10 -15.5 10 -27.5v-117c0 -11.333 -3.16699 -20.333 -9.5 -27s-15.5 -10 -27.5 -10c-11.333 0 -20.333 3.16699 -27 9.5s-10 15.5 -10 27.5v117c0 11.333 3.16699 20.333 9.5 27zM128 7
c-26 12 -46.332 29.666 -60.999 52.999s-22 50 -22 80c0 52 20.167 92.167 60.5 120.5s97.166 42.5 170.499 42.5h120v7c0 42.667 -10.5 73.834 -31.5 93.501s-54.833 29.5 -101.5 29.5c-24 0 -45.667 -1.83301 -65 -5.5s-42 -9.83398 -68 -18.501l-13 -2
c-10 0 -18.833 3.83301 -26.5 11.5s-11.5 16.834 -11.5 27.501c0 18.667 9 31.667 27 39c56 24 113.667 36 173 36c46 0 85.333 -9.33301 118 -28c30.667 -18 53.667 -41.833 69 -71.5s23 -62.5 23 -98.5v-283c0 -12.667 -4.66699 -23.5 -14 -32.5s-20.333 -13.5 -33 -13.5
s-23.5 4.5 -32.5 13.5s-13.5 19.833 -13.5 32.5v24c-48 -50 -110.333 -75 -187 -75c-28.667 0 -55.667 6 -81 18zM326.501 91.499c27 13.667 50.167 31.5 69.5 53.5v83h-108c-100 0 -150 -26 -150 -78c0 -52.667 35 -79 105 -79c28.667 0 56.5 6.83301 83.5 20.5z" />
    <glyph glyph-name="uni0065_uni030B.liga" unicode="e&#x30b;" horiz-adv-x="566" 
d="M196 576c-5.33301 4.66699 -8 10.999 -8 18.999c0 4 0.333008 6.66699 1 8l27 90c2.66699 10 7.66699 17.833 15 23.5s15.333 8.5 24 8.5c10 0 18.5 -3.16699 25.5 -9.5s10.5 -14.5 10.5 -24.5c0 -7.33301 -2.33301 -15.666 -7 -24.999l-41 -79
c-6.66699 -12 -15.667 -18 -27 -18c-8 0 -14.667 2.33301 -20 7zM312 575.999c-5.33301 4.66699 -8 10.999 -8 18.999c0 4 0.333008 6.66699 1 8l27 90c2.66699 10 7.66699 17.833 15 23.5s15.333 8.5 24 8.5c10 0 18.5 -3.16699 25.5 -9.5s10.5 -14.5 10.5 -24.5
c0 -7.33301 -2.33301 -15.666 -7 -24.999l-41 -79c-6.66699 -12 -15.667 -18 -27 -18c-8 0 -14.667 2.33301 -20 7zM115.5 58.998c-45.667 46.667 -68.501 112 -68.501 196c0 45.333 8.66699 89 26 131c18 42 45.333 75 82 99s80.667 36 132 36
c49.333 0 92.333 -11.333 129 -34c34.667 -22.667 61.667 -53.167 81 -91.5s29 -80.833 29 -127.5c0 -12.667 -4.33301 -23.5 -13 -32.5s-20 -13.5 -34 -13.5h-338c6 -47.333 23.833 -83.5 53.5 -108.5s69.834 -37.5 120.501 -37.5c26.667 0 50.5 2.5 71.5 7.5
s42.167 12.833 63.5 23.5c4.66699 2.66699 10.667 4 18 4c10.667 0 20.167 -3.83301 28.5 -11.5s12.5 -17.167 12.5 -28.5c0 -15.333 -9 -28 -27 -38c-28 -15.333 -54.667 -26.5 -80 -33.5s-57 -10.5 -95 -10.5c-82 0 -145.833 23.333 -191.5 70zM432.999 310.998
c-2.66699 26.667 -10.667 48.999 -24 66.999c-14.667 21.333 -32.834 37.333 -54.501 48s-44.167 16 -67.5 16c-21.333 0 -43.666 -5 -66.999 -15c-23.333 -11.333 -41.833 -28.166 -55.5 -50.499s-21.5 -48.5 -23.5 -78.5h280c8.66699 0 12.667 4.33301 12 13z" />
    <glyph glyph-name="e_tildecomb.liga" unicode="e&#x303;" horiz-adv-x="566" 
d="M140.5 597c-5 4.66699 -7.49902 10.3359 -7.49902 17.0029c0 23.333 8.33301 45.166 25 65.499s36.667 30.5 60 30.5c12.667 0 24.667 -1.83301 36 -5.5s26 -9.83398 44 -18.501c17.333 -8.66699 31.166 -14.667 41.499 -18s21.166 -5 32.499 -5
c17.333 0 29.333 8.66699 36 26c5.33301 14.667 14 22 26 22c6.66699 0 12.334 -2.16699 17.001 -6.5s7 -9.83301 7 -16.5c0 -24.667 -8.33301 -46.834 -25 -66.501s-36.667 -29.5 -60 -29.5c-12.667 0 -24.667 1.83301 -36 5.5s-26.666 10.167 -45.999 19.5
c-17.333 8.66699 -31 14.667 -41 18s-20.333 5 -31 5c-18.667 0 -31.334 -10.333 -38.001 -31c-4 -12.667 -12 -19 -24 -19c-6 0 -11.5 2.33301 -16.5 7zM115.501 59.002c-45.667 46.667 -68.501 112 -68.501 196c0 45.333 8.66699 89 26 131c18 42 45.333 75 82 99
s80.667 36 132 36c49.333 0 92.333 -11.333 129 -34c34.667 -22.667 61.667 -53.167 81 -91.5s29 -80.833 29 -127.5c0 -12.667 -4.33301 -23.5 -13 -32.5s-20 -13.5 -34 -13.5h-338c6 -47.333 23.833 -83.5 53.5 -108.5s69.834 -37.5 120.501 -37.5
c26.667 0 50.5 2.5 71.5 7.5s42.167 12.833 63.5 23.5c4.66699 2.66699 10.667 4 18 4c10.667 0 20.167 -3.83301 28.5 -11.5s12.5 -17.167 12.5 -28.5c0 -15.333 -9 -28 -27 -38c-28 -15.333 -54.667 -26.5 -80 -33.5s-57 -10.5 -95 -10.5c-82 0 -145.833 23.333 -191.5 70
zM433 311.002c-2.66699 26.667 -10.667 48.999 -24 66.999c-14.667 21.333 -32.834 37.333 -54.501 48s-44.167 16 -67.5 16c-21.333 0 -43.666 -5 -66.999 -15c-23.333 -11.333 -41.833 -28.166 -55.5 -50.499s-21.5 -48.5 -23.5 -78.5h280c8.66699 0 12.667 4.33301 12 13
z" />
    <glyph glyph-name="uni0065_uni030D.liga" unicode="e&#x30d;" horiz-adv-x="566" 
d="M259.5 750c6.33301 6.66699 15.5 10 27.5 10c11.333 0 20.333 -3.16699 27 -9.5s10 -15.5 10 -27.5v-117c0 -11.333 -3.16699 -20.333 -9.5 -27s-15.5 -10 -27.5 -10c-11.333 0 -20.333 3.16699 -27 9.5s-10 15.5 -10 27.5v117c0 11.333 3.16699 20.333 9.5 27zM115.5 59
c-45.667 46.667 -68.501 112 -68.501 196c0 45.333 8.66699 89 26 131c18 42 45.333 75 82 99s80.667 36 132 36c49.333 0 92.333 -11.333 129 -34c34.667 -22.667 61.667 -53.167 81 -91.5s29 -80.833 29 -127.5c0 -12.667 -4.33301 -23.5 -13 -32.5s-20 -13.5 -34 -13.5
h-338c6 -47.333 23.833 -83.5 53.5 -108.5s69.834 -37.5 120.501 -37.5c26.667 0 50.5 2.5 71.5 7.5s42.167 12.833 63.5 23.5c4.66699 2.66699 10.667 4 18 4c10.667 0 20.167 -3.83301 28.5 -11.5s12.5 -17.167 12.5 -28.5c0 -15.333 -9 -28 -27 -38
c-28 -15.333 -54.667 -26.5 -80 -33.5s-57 -10.5 -95 -10.5c-82 0 -145.833 23.333 -191.5 70zM432.999 311c-2.66699 26.667 -10.667 48.999 -24 66.999c-14.667 21.333 -32.834 37.333 -54.501 48s-44.167 16 -67.5 16c-21.333 0 -43.666 -5 -66.999 -15
c-23.333 -11.333 -41.833 -28.166 -55.5 -50.499s-21.5 -48.5 -23.5 -78.5h280c8.66699 0 12.667 4.33301 12 13z" />
    <glyph glyph-name="uni0131_uni030B.liga" unicode="&#x131;&#x30b;" horiz-adv-x="249" 
d="M33 571c-5.33301 4.66699 -8 10.999 -8 18.999c0 4 0.333008 6.66699 1 8l27 90c2.66699 10 7.66699 17.833 15 23.5s15.333 8.5 24 8.5c10 0 18.5 -3.16699 25.5 -9.5s10.5 -14.5 10.5 -24.5c0 -7.33301 -2.33301 -15.666 -7 -24.999l-41 -79
c-6.66699 -12 -15.667 -18 -27 -18c-8 0 -14.667 2.33301 -20 7zM149 570.999c-5.33301 4.66699 -8 10.999 -8 18.999c0 4 0.333008 6.66699 1 8l27 90c2.66699 10 7.66699 17.833 15 23.5s15.333 8.5 24 8.5c10 0 18.5 -3.16699 25.5 -9.5s10.5 -14.5 10.5 -24.5
c0 -7.33301 -2.33301 -15.666 -7 -24.999l-41 -79c-6.66699 -12 -15.667 -18 -27 -18c-8 0 -14.667 2.33301 -20 7zM91.5 7.49805c-9 9 -13.5 19.833 -13.5 32.5v429c0 12.667 4.5 23.667 13.5 33s19.833 14 32.5 14c13.333 0 24.5 -4.5 33.5 -13.5s13.5 -20.167 13.5 -33.5
v-429c0 -12.667 -4.66699 -23.5 -14 -32.5s-20.333 -13.5 -33 -13.5s-23.5 4.5 -32.5 13.5z" />
    <glyph glyph-name="dotlessi_tildecomb.liga" unicode="&#x131;&#x303;" horiz-adv-x="249" 
d="M-22.5 592c-5 4.66699 -7.49902 10.3359 -7.49902 17.0029c0 23.333 8.33301 45.166 25 65.499s36.667 30.5 60 30.5c12.667 0 24.667 -1.83301 36 -5.5s26 -9.83398 44 -18.501c17.333 -8.66699 31.166 -14.667 41.499 -18s21.166 -5 32.499 -5
c17.333 0 29.333 8.66699 36 26c5.33301 14.667 14 22 26 22c6.66699 0 12.334 -2.16699 17.001 -6.5s7 -9.83301 7 -16.5c0 -24.667 -8.33301 -46.834 -25 -66.501s-36.667 -29.5 -60 -29.5c-12.667 0 -24.667 1.83301 -36 5.5s-26.666 10.167 -45.999 19.5
c-17.333 8.66699 -31 14.667 -41 18s-20.333 5 -31 5c-18.667 0 -31.334 -10.333 -38.001 -31c-4 -12.667 -12 -19 -24 -19c-6 0 -11.5 2.33301 -16.5 7zM91.501 7.50195c-9 9 -13.5 19.833 -13.5 32.5v429c0 12.667 4.5 23.667 13.5 33s19.833 14 32.5 14
c13.333 0 24.5 -4.5 33.5 -13.5s13.5 -20.167 13.5 -33.5v-429c0 -12.667 -4.66699 -23.5 -14 -32.5s-20.333 -13.5 -33 -13.5s-23.5 4.5 -32.5 13.5z" />
    <glyph glyph-name="uni0131_uni030D.liga" unicode="&#x131;&#x30d;" horiz-adv-x="249" 
d="M96.5 745c6.33301 6.66699 15.5 10 27.5 10c11.333 0 20.333 -3.16699 27 -9.5s10 -15.5 10 -27.5v-117c0 -11.333 -3.16699 -20.333 -9.5 -27s-15.5 -10 -27.5 -10c-11.333 0 -20.333 3.16699 -27 9.5s-10 15.5 -10 27.5v117c0 11.333 3.16699 20.333 9.5 27zM91.5 7.5
c-9 9 -13.5 19.833 -13.5 32.5v429c0 12.667 4.5 23.667 13.5 33s19.833 14 32.5 14c13.333 0 24.5 -4.5 33.5 -13.5s13.5 -20.167 13.5 -33.5v-429c0 -12.667 -4.66699 -23.5 -14 -32.5s-20.333 -13.5 -33 -13.5s-23.5 4.5 -32.5 13.5z" />
    <glyph glyph-name="uni0069_uni030B.liga" unicode="i&#x30b;" horiz-adv-x="249" 
d="M33 571c-5.33301 4.66699 -8 10.999 -8 18.999c0 4 0.333008 6.66699 1 8l27 90c2.66699 10 7.66699 17.833 15 23.5s15.333 8.5 24 8.5c10 0 18.5 -3.16699 25.5 -9.5s10.5 -14.5 10.5 -24.5c0 -7.33301 -2.33301 -15.666 -7 -24.999l-41 -79
c-6.66699 -12 -15.667 -18 -27 -18c-8 0 -14.667 2.33301 -20 7zM149 570.999c-5.33301 4.66699 -8 10.999 -8 18.999c0 4 0.333008 6.66699 1 8l27 90c2.66699 10 7.66699 17.833 15 23.5s15.333 8.5 24 8.5c10 0 18.5 -3.16699 25.5 -9.5s10.5 -14.5 10.5 -24.5
c0 -7.33301 -2.33301 -15.666 -7 -24.999l-41 -79c-6.66699 -12 -15.667 -18 -27 -18c-8 0 -14.667 2.33301 -20 7zM91.5 7.49805c-9 9 -13.5 19.833 -13.5 32.5v429c0 12.667 4.5 23.667 13.5 33s19.833 14 32.5 14c13.333 0 24.5 -4.5 33.5 -13.5s13.5 -20.167 13.5 -33.5
v-429c0 -12.667 -4.66699 -23.5 -14 -32.5s-20.333 -13.5 -33 -13.5s-23.5 4.5 -32.5 13.5z" />
    <glyph glyph-name="i_tildecomb.liga" unicode="i&#x303;" horiz-adv-x="249" 
d="M-22.5 592c-5 4.66699 -7.49902 10.3359 -7.49902 17.0029c0 23.333 8.33301 45.166 25 65.499s36.667 30.5 60 30.5c12.667 0 24.667 -1.83301 36 -5.5s26 -9.83398 44 -18.501c17.333 -8.66699 31.166 -14.667 41.499 -18s21.166 -5 32.499 -5
c17.333 0 29.333 8.66699 36 26c5.33301 14.667 14 22 26 22c6.66699 0 12.334 -2.16699 17.001 -6.5s7 -9.83301 7 -16.5c0 -24.667 -8.33301 -46.834 -25 -66.501s-36.667 -29.5 -60 -29.5c-12.667 0 -24.667 1.83301 -36 5.5s-26.666 10.167 -45.999 19.5
c-17.333 8.66699 -31 14.667 -41 18s-20.333 5 -31 5c-18.667 0 -31.334 -10.333 -38.001 -31c-4 -12.667 -12 -19 -24 -19c-6 0 -11.5 2.33301 -16.5 7zM91.501 7.50195c-9 9 -13.5 19.833 -13.5 32.5v429c0 12.667 4.5 23.667 13.5 33s19.833 14 32.5 14
c13.333 0 24.5 -4.5 33.5 -13.5s13.5 -20.167 13.5 -33.5v-429c0 -12.667 -4.66699 -23.5 -14 -32.5s-20.333 -13.5 -33 -13.5s-23.5 4.5 -32.5 13.5z" />
    <glyph glyph-name="uni0069_uni030D.liga" unicode="i&#x30d;" horiz-adv-x="249" 
d="M96.5 745c6.33301 6.66699 15.5 10 27.5 10c11.333 0 20.333 -3.16699 27 -9.5s10 -15.5 10 -27.5v-117c0 -11.333 -3.16699 -20.333 -9.5 -27s-15.5 -10 -27.5 -10c-11.333 0 -20.333 3.16699 -27 9.5s-10 15.5 -10 27.5v117c0 11.333 3.16699 20.333 9.5 27zM91.5 7.5
c-9 9 -13.5 19.833 -13.5 32.5v429c0 12.667 4.5 23.667 13.5 33s19.833 14 32.5 14c13.333 0 24.5 -4.5 33.5 -13.5s13.5 -20.167 13.5 -33.5v-429c0 -12.667 -4.66699 -23.5 -14 -32.5s-20.333 -13.5 -33 -13.5s-23.5 4.5 -32.5 13.5z" />
    <glyph glyph-name="m_gravecomb.liga" unicode="m&#x300;" horiz-adv-x="918" 
d="M401 648c-6.66699 10 -10 18.667 -10 26c0 12 3.5 21.333 10.5 28s16.167 10 27.5 10c16 0 27.333 -6.66699 34 -20l51 -89c4.66699 -8 7 -14.667 7 -20c0 -8 -2.5 -14.667 -7.5 -20s-11.833 -8 -20.5 -8c-9.33301 0 -17 3.66699 -23 11zM826.5 422
c12.333 -29.333 18.498 -60.667 18.498 -94v-288c0 -12.667 -4.66699 -23.5 -14 -32.5s-20.333 -13.5 -33 -13.5s-23.5 4.5 -32.5 13.5s-13.5 19.833 -13.5 32.5v270c0 44.667 -7.83301 76.667 -23.5 96s-41.5 29 -77.5 29c-32 0 -59 -8.16699 -81 -24.5
s-42.667 -39.833 -62 -70.5v-300c0 -12.667 -4.66699 -23.5 -14 -32.5s-20.333 -13.5 -33 -13.5s-23.5 4.5 -32.5 13.5s-13.5 19.833 -13.5 32.5v270c0 44.667 -7.83301 76.667 -23.5 96s-41.5 29 -77.5 29c-32 0 -59 -8.16699 -81 -24.5s-42.667 -39.833 -62 -70.5v-300
c0 -12.667 -4.66699 -23.5 -14 -32.5s-20.333 -13.5 -33 -13.5s-23.5 4.5 -32.5 13.5s-13.5 19.833 -13.5 32.5v429c0 12.667 4.5 23.667 13.5 33s19.833 14 32.5 14s23.667 -4.66699 33 -14s14 -20.333 14 -33v-37c20.667 28 44.334 49.833 71.001 65.5
s59.334 23.5 98.001 23.5c36 0 67.5 -9.5 94.5 -28.5s46.5 -43.5 58.5 -73.5c41.333 68 102.666 102 183.999 102c38.667 0 70.334 -9.33301 95.001 -28c24 -18 42.167 -41.667 54.5 -71z" />
    <glyph glyph-name="m_acutecomb.liga" unicode="m&#x301;" horiz-adv-x="918" 
d="M473 562.5c-5.33301 5 -8 11.834 -8 20.501c0 5.33301 2.33301 12 7 20l51 89c6.66699 13.333 18 20 34 20c10.667 0 19.667 -3.5 27 -10.5s11 -16.167 11 -27.5c0 -10.667 -3.33301 -19.334 -10 -26.001l-69 -82c-6 -7.33301 -13.667 -11 -23 -11
c-8 0 -14.667 2.5 -20 7.5zM826.5 422.001c12.333 -29.333 18.498 -60.667 18.498 -94v-288c0 -12.667 -4.66699 -23.5 -14 -32.5s-20.333 -13.5 -33 -13.5s-23.5 4.5 -32.5 13.5s-13.5 19.833 -13.5 32.5v270c0 44.667 -7.83301 76.667 -23.5 96s-41.5 29 -77.5 29
c-32 0 -59 -8.16699 -81 -24.5s-42.667 -39.833 -62 -70.5v-300c0 -12.667 -4.66699 -23.5 -14 -32.5s-20.333 -13.5 -33 -13.5s-23.5 4.5 -32.5 13.5s-13.5 19.833 -13.5 32.5v270c0 44.667 -7.83301 76.667 -23.5 96s-41.5 29 -77.5 29c-32 0 -59 -8.16699 -81 -24.5
s-42.667 -39.833 -62 -70.5v-300c0 -12.667 -4.66699 -23.5 -14 -32.5s-20.333 -13.5 -33 -13.5s-23.5 4.5 -32.5 13.5s-13.5 19.833 -13.5 32.5v429c0 12.667 4.5 23.667 13.5 33s19.833 14 32.5 14s23.667 -4.66699 33 -14s14 -20.333 14 -33v-37
c20.667 28 44.334 49.833 71.001 65.5s59.334 23.5 98.001 23.5c36 0 67.5 -9.5 94.5 -28.5s46.5 -43.5 58.5 -73.5c41.333 68 102.666 102 183.999 102c38.667 0 70.334 -9.33301 95.001 -28c24 -18 42.167 -41.667 54.5 -71z" />
    <glyph glyph-name="uni006D_uni030B.liga" unicode="m&#x30b;" horiz-adv-x="918" 
d="M402 572c-5.33301 4.66699 -8 10.999 -8 18.999c0 4 0.333008 6.66699 1 8l27 90c2.66699 10 7.66699 17.833 15 23.5s15.333 8.5 24 8.5c10 0 18.5 -3.16699 25.5 -9.5s10.5 -14.5 10.5 -24.5c0 -7.33301 -2.33301 -15.666 -7 -24.999l-41 -79
c-6.66699 -12 -15.667 -18 -27 -18c-8 0 -14.667 2.33301 -20 7zM518 571.999c-5.33301 4.66699 -8 10.999 -8 18.999c0 4 0.333008 6.66699 1 8l27 90c2.66699 10 7.66699 17.833 15 23.5s15.333 8.5 24 8.5c10 0 18.5 -3.16699 25.5 -9.5s10.5 -14.5 10.5 -24.5
c0 -7.33301 -2.33301 -15.666 -7 -24.999l-41 -79c-6.66699 -12 -15.667 -18 -27 -18c-8 0 -14.667 2.33301 -20 7zM826.5 421.998c12.333 -29.333 18.498 -60.667 18.498 -94v-288c0 -12.667 -4.66699 -23.5 -14 -32.5s-20.333 -13.5 -33 -13.5s-23.5 4.5 -32.5 13.5
s-13.5 19.833 -13.5 32.5v270c0 44.667 -7.83301 76.667 -23.5 96s-41.5 29 -77.5 29c-32 0 -59 -8.16699 -81 -24.5s-42.667 -39.833 -62 -70.5v-300c0 -12.667 -4.66699 -23.5 -14 -32.5s-20.333 -13.5 -33 -13.5s-23.5 4.5 -32.5 13.5s-13.5 19.833 -13.5 32.5v270
c0 44.667 -7.83301 76.667 -23.5 96s-41.5 29 -77.5 29c-32 0 -59 -8.16699 -81 -24.5s-42.667 -39.833 -62 -70.5v-300c0 -12.667 -4.66699 -23.5 -14 -32.5s-20.333 -13.5 -33 -13.5s-23.5 4.5 -32.5 13.5s-13.5 19.833 -13.5 32.5v429c0 12.667 4.5 23.667 13.5 33
s19.833 14 32.5 14s23.667 -4.66699 33 -14s14 -20.333 14 -33v-37c20.667 28 44.334 49.833 71.001 65.5s59.334 23.5 98.001 23.5c36 0 67.5 -9.5 94.5 -28.5s46.5 -43.5 58.5 -73.5c41.333 68 102.666 102 183.999 102c38.667 0 70.334 -9.33301 95.001 -28
c24 -18 42.167 -41.667 54.5 -71z" />
    <glyph glyph-name="uni006D_uni0302.liga" unicode="m&#x302;" horiz-adv-x="918" 
d="M366.5 574.5c-6.33301 6.33301 -9.50293 13.166 -9.50293 20.499s2.66699 14.333 8 21l68 70c12.667 13.333 26.334 20 41.001 20h38c14.667 0 28.334 -6.66699 41.001 -20l68 -70c5.33301 -6.66699 8 -13.667 8 -21s-3.16699 -14.166 -9.5 -20.499
s-13.5 -9.5 -21.5 -9.5c-7.33301 0 -13.666 2.33301 -18.999 7l-78 66c-2 2.66699 -4.66699 4 -8 4c-2.66699 0 -5.33398 -1.33301 -8.00098 -4l-78 -66c-5.33301 -4.66699 -11.666 -7 -18.999 -7c-8 0 -15.167 3.16699 -21.5 9.5zM826.497 422
c12.333 -29.333 18.498 -60.667 18.498 -94v-288c0 -12.667 -4.66699 -23.5 -14 -32.5s-20.333 -13.5 -33 -13.5s-23.5 4.5 -32.5 13.5s-13.5 19.833 -13.5 32.5v270c0 44.667 -7.83301 76.667 -23.5 96s-41.5 29 -77.5 29c-32 0 -59 -8.16699 -81 -24.5
s-42.667 -39.833 -62 -70.5v-300c0 -12.667 -4.66699 -23.5 -14 -32.5s-20.333 -13.5 -33 -13.5s-23.5 4.5 -32.5 13.5s-13.5 19.833 -13.5 32.5v270c0 44.667 -7.83301 76.667 -23.5 96s-41.5 29 -77.5 29c-32 0 -59 -8.16699 -81 -24.5s-42.667 -39.833 -62 -70.5v-300
c0 -12.667 -4.66699 -23.5 -14 -32.5s-20.333 -13.5 -33 -13.5s-23.5 4.5 -32.5 13.5s-13.5 19.833 -13.5 32.5v429c0 12.667 4.5 23.667 13.5 33s19.833 14 32.5 14s23.667 -4.66699 33 -14s14 -20.333 14 -33v-37c20.667 28 44.334 49.833 71.001 65.5
s59.334 23.5 98.001 23.5c36 0 67.5 -9.5 94.5 -28.5s46.5 -43.5 58.5 -73.5c41.333 68 102.666 102 183.999 102c38.667 0 70.334 -9.33301 95.001 -28c24 -18 42.167 -41.667 54.5 -71z" />
    <glyph glyph-name="uni006D_uni030C.liga" unicode="m&#x30c;" horiz-adv-x="918" 
d="M357 676c0 7.33301 3.16992 14.166 9.50293 20.499s13.5 9.5 21.5 9.5c7.33301 0 13.666 -2.33301 18.999 -7l78 -66c4 -2.66699 6.66699 -4 8 -4c2.66699 0 5.33398 1.33301 8.00098 4l78 66c5.33301 4.66699 11.666 7 18.999 7c8 0 15.167 -3.16699 21.5 -9.5
s9.5 -13.166 9.5 -20.499s-2.66699 -14.333 -8 -21l-68 -70c-12.667 -13.333 -26.334 -20 -41.001 -20h-38c-14.667 0 -28.334 6.66699 -41.001 20l-68 70c-5.33301 6.66699 -8 13.667 -8 21zM826.503 422c12.333 -29.333 18.498 -60.667 18.498 -94v-288
c0 -12.667 -4.66699 -23.5 -14 -32.5s-20.333 -13.5 -33 -13.5s-23.5 4.5 -32.5 13.5s-13.5 19.833 -13.5 32.5v270c0 44.667 -7.83301 76.667 -23.5 96s-41.5 29 -77.5 29c-32 0 -59 -8.16699 -81 -24.5s-42.667 -39.833 -62 -70.5v-300
c0 -12.667 -4.66699 -23.5 -14 -32.5s-20.333 -13.5 -33 -13.5s-23.5 4.5 -32.5 13.5s-13.5 19.833 -13.5 32.5v270c0 44.667 -7.83301 76.667 -23.5 96s-41.5 29 -77.5 29c-32 0 -59 -8.16699 -81 -24.5s-42.667 -39.833 -62 -70.5v-300
c0 -12.667 -4.66699 -23.5 -14 -32.5s-20.333 -13.5 -33 -13.5s-23.5 4.5 -32.5 13.5s-13.5 19.833 -13.5 32.5v429c0 12.667 4.5 23.667 13.5 33s19.833 14 32.5 14s23.667 -4.66699 33 -14s14 -20.333 14 -33v-37c20.667 28 44.334 49.833 71.001 65.5
s59.334 23.5 98.001 23.5c36 0 67.5 -9.5 94.5 -28.5s46.5 -43.5 58.5 -73.5c41.333 68 102.666 102 183.999 102c38.667 0 70.334 -9.33301 95.001 -28c24 -18 42.167 -41.667 54.5 -71z" />
    <glyph glyph-name="uni006D_uni0306.liga" unicode="m&#x306;" horiz-adv-x="918" 
d="M407 576.5c-25.333 14.333 -43.6641 34.5 -54.9971 60.5c-2 4 -3 8.66699 -3 14c0 8.66699 3 16.167 9 22.5s13.667 9.5 23 9.5c13.333 0 23 -6.66699 29 -20c7.33301 -15.333 18.166 -27.166 32.499 -35.499s31.166 -12.5 50.499 -12.5s36.166 4.16699 50.499 12.5
s25.166 20.166 32.499 35.499c6 13.333 15.667 20 29 20c9.33301 0 17 -3.16699 23 -9.5s9 -13.833 9 -22.5c0 -5.33301 -1 -10 -3 -14c-11.333 -26 -29.666 -46.167 -54.999 -60.5s-54 -21.5 -86 -21.5s-60.667 7.16699 -86 21.5zM826.502 422
c12.333 -29.333 18.498 -60.667 18.498 -94v-288c0 -12.667 -4.66699 -23.5 -14 -32.5s-20.333 -13.5 -33 -13.5s-23.5 4.5 -32.5 13.5s-13.5 19.833 -13.5 32.5v270c0 44.667 -7.83301 76.667 -23.5 96s-41.5 29 -77.5 29c-32 0 -59 -8.16699 -81 -24.5
s-42.667 -39.833 -62 -70.5v-300c0 -12.667 -4.66699 -23.5 -14 -32.5s-20.333 -13.5 -33 -13.5s-23.5 4.5 -32.5 13.5s-13.5 19.833 -13.5 32.5v270c0 44.667 -7.83301 76.667 -23.5 96s-41.5 29 -77.5 29c-32 0 -59 -8.16699 -81 -24.5s-42.667 -39.833 -62 -70.5v-300
c0 -12.667 -4.66699 -23.5 -14 -32.5s-20.333 -13.5 -33 -13.5s-23.5 4.5 -32.5 13.5s-13.5 19.833 -13.5 32.5v429c0 12.667 4.5 23.667 13.5 33s19.833 14 32.5 14s23.667 -4.66699 33 -14s14 -20.333 14 -33v-37c20.667 28 44.334 49.833 71.001 65.5
s59.334 23.5 98.001 23.5c36 0 67.5 -9.5 94.5 -28.5s46.5 -43.5 58.5 -73.5c41.333 68 102.666 102 183.999 102c38.667 0 70.334 -9.33301 95.001 -28c24 -18 42.167 -41.667 54.5 -71z" />
    <glyph glyph-name="uni006D_uni0304.liga" unicode="m&#x304;" horiz-adv-x="918" 
d="M354 594c-6 6 -9 13.333 -9 22s3 16 9 22s13.333 9 22 9h234c8.66699 0 16 -3 22 -9s9 -13.333 9 -22s-3 -16 -9 -22s-13.333 -9 -22 -9h-234c-8.66699 0 -16 3 -22 9zM826.5 422c12.333 -29.333 18.498 -60.667 18.498 -94v-288c0 -12.667 -4.66699 -23.5 -14 -32.5
s-20.333 -13.5 -33 -13.5s-23.5 4.5 -32.5 13.5s-13.5 19.833 -13.5 32.5v270c0 44.667 -7.83301 76.667 -23.5 96s-41.5 29 -77.5 29c-32 0 -59 -8.16699 -81 -24.5s-42.667 -39.833 -62 -70.5v-300c0 -12.667 -4.66699 -23.5 -14 -32.5s-20.333 -13.5 -33 -13.5
s-23.5 4.5 -32.5 13.5s-13.5 19.833 -13.5 32.5v270c0 44.667 -7.83301 76.667 -23.5 96s-41.5 29 -77.5 29c-32 0 -59 -8.16699 -81 -24.5s-42.667 -39.833 -62 -70.5v-300c0 -12.667 -4.66699 -23.5 -14 -32.5s-20.333 -13.5 -33 -13.5s-23.5 4.5 -32.5 13.5
s-13.5 19.833 -13.5 32.5v429c0 12.667 4.5 23.667 13.5 33s19.833 14 32.5 14s23.667 -4.66699 33 -14s14 -20.333 14 -33v-37c20.667 28 44.334 49.833 71.001 65.5s59.334 23.5 98.001 23.5c36 0 67.5 -9.5 94.5 -28.5s46.5 -43.5 58.5 -73.5
c41.333 68 102.666 102 183.999 102c38.667 0 70.334 -9.33301 95.001 -28c24 -18 42.167 -41.667 54.5 -71z" />
    <glyph glyph-name="uni006D_uni030D.liga" unicode="m&#x30d;" horiz-adv-x="918" 
d="M466 574.5c-6.66699 6.33301 -10 15.5 -10 27.5v117c0 11.333 3.16699 20.333 9.5 27s15.5 10 27.5 10c11.333 0 20.333 -3.16699 27 -9.5s10 -15.5 10 -27.5v-117c0 -11.333 -3.16699 -20.333 -9.5 -27s-15.5 -10 -27.5 -10c-11.333 0 -20.333 3.16699 -27 9.5z
M826.5 422c12.333 -29.333 18.498 -60.667 18.498 -94v-288c0 -12.667 -4.66699 -23.5 -14 -32.5s-20.333 -13.5 -33 -13.5s-23.5 4.5 -32.5 13.5s-13.5 19.833 -13.5 32.5v270c0 44.667 -7.83301 76.667 -23.5 96s-41.5 29 -77.5 29c-32 0 -59 -8.16699 -81 -24.5
s-42.667 -39.833 -62 -70.5v-300c0 -12.667 -4.66699 -23.5 -14 -32.5s-20.333 -13.5 -33 -13.5s-23.5 4.5 -32.5 13.5s-13.5 19.833 -13.5 32.5v270c0 44.667 -7.83301 76.667 -23.5 96s-41.5 29 -77.5 29c-32 0 -59 -8.16699 -81 -24.5s-42.667 -39.833 -62 -70.5v-300
c0 -12.667 -4.66699 -23.5 -14 -32.5s-20.333 -13.5 -33 -13.5s-23.5 4.5 -32.5 13.5s-13.5 19.833 -13.5 32.5v429c0 12.667 4.5 23.667 13.5 33s19.833 14 32.5 14s23.667 -4.66699 33 -14s14 -20.333 14 -33v-37c20.667 28 44.334 49.833 71.001 65.5
s59.334 23.5 98.001 23.5c36 0 67.5 -9.5 94.5 -28.5s46.5 -43.5 58.5 -73.5c41.333 68 102.666 102 183.999 102c38.667 0 70.334 -9.33301 95.001 -28c24 -18 42.167 -41.667 54.5 -71z" />
    <glyph glyph-name="n_gravecomb.liga" unicode="n&#x300;" horiz-adv-x="609" 
d="M293 570l-69 82c-6.66699 10 -10 18.667 -10 26c0 12 3.5 21.333 10.5 28s16.167 10 27.5 10c16 0 27.333 -6.66699 34 -20l51 -89c4.66699 -8 7 -14.667 7 -20c0 -8 -2.5 -14.667 -7.5 -20s-11.833 -8 -20.5 -8c-9.33301 0 -17 3.66699 -23 11zM91.5 7.5
c-9 9 -13.498 19.834 -13.498 32.501v429c0 12.667 4.5 23.667 13.5 33s19.833 14 32.5 14s23.667 -4.66699 33 -14s14 -20.333 14 -33v-38c27.333 29.333 55.666 51.666 84.999 66.999s62.666 23 99.999 23c36.667 0 69 -8.66699 97 -26
c26.667 -17.333 47.167 -41 61.5 -71s21.5 -63.333 21.5 -100v-284c0 -12.667 -4.66699 -23.5 -14 -32.5s-20.333 -13.5 -33 -13.5s-23.5 4.5 -32.5 13.5s-13.5 19.833 -13.5 32.5v274c0 80.667 -36.333 121 -109 121c-32 0 -60.833 -8 -86.5 -24s-51.167 -39.667 -76.5 -71
v-300c0 -12.667 -4.66699 -23.5 -14 -32.5s-20.333 -13.5 -33 -13.5s-23.5 4.5 -32.5 13.5z" />
    <glyph glyph-name="n_acutecomb.liga" unicode="n&#x301;" horiz-adv-x="609" 
d="M296 566.5c-5.33301 5 -8 11.834 -8 20.501c0 5.33301 2.33301 12 7 20l51 89c6.66699 13.333 18 20 34 20c10.667 0 19.667 -3.5 27 -10.5s11 -16.167 11 -27.5c0 -10.667 -3.33301 -19.334 -10 -26.001l-69 -82c-6 -7.33301 -13.667 -11 -23 -11
c-8 0 -14.667 2.5 -20 7.5zM91.5 7.50098c-9 9 -13.498 19.834 -13.498 32.501v429c0 12.667 4.5 23.667 13.5 33s19.833 14 32.5 14s23.667 -4.66699 33 -14s14 -20.333 14 -33v-38c27.333 29.333 55.666 51.666 84.999 66.999s62.666 23 99.999 23
c36.667 0 69 -8.66699 97 -26c26.667 -17.333 47.167 -41 61.5 -71s21.5 -63.333 21.5 -100v-284c0 -12.667 -4.66699 -23.5 -14 -32.5s-20.333 -13.5 -33 -13.5s-23.5 4.5 -32.5 13.5s-13.5 19.833 -13.5 32.5v274c0 80.667 -36.333 121 -109 121
c-32 0 -60.833 -8 -86.5 -24s-51.167 -39.667 -76.5 -71v-300c0 -12.667 -4.66699 -23.5 -14 -32.5s-20.333 -13.5 -33 -13.5s-23.5 4.5 -32.5 13.5z" />
    <glyph glyph-name="uni006E_uni030B.liga" unicode="n&#x30b;" horiz-adv-x="609" 
d="M225 576c-5.33301 4.66699 -8 10.999 -8 18.999c0 4 0.333008 6.66699 1 8l27 90c2.66699 10 7.66699 17.833 15 23.5s15.333 8.5 24 8.5c10 0 18.5 -3.16699 25.5 -9.5s10.5 -14.5 10.5 -24.5c0 -7.33301 -2.33301 -15.666 -7 -24.999l-41 -79
c-6.66699 -12 -15.667 -18 -27 -18c-8 0 -14.667 2.33301 -20 7zM341 575.999c-5.33301 4.66699 -8 10.999 -8 18.999c0 4 0.333008 6.66699 1 8l27 90c2.66699 10 7.66699 17.833 15 23.5s15.333 8.5 24 8.5c10 0 18.5 -3.16699 25.5 -9.5s10.5 -14.5 10.5 -24.5
c0 -7.33301 -2.33301 -15.666 -7 -24.999l-41 -79c-6.66699 -12 -15.667 -18 -27 -18c-8 0 -14.667 2.33301 -20 7zM91.5 7.49805c-9 9 -13.498 19.834 -13.498 32.501v429c0 12.667 4.5 23.667 13.5 33s19.833 14 32.5 14s23.667 -4.66699 33 -14s14 -20.333 14 -33v-38
c27.333 29.333 55.666 51.666 84.999 66.999s62.666 23 99.999 23c36.667 0 69 -8.66699 97 -26c26.667 -17.333 47.167 -41 61.5 -71s21.5 -63.333 21.5 -100v-284c0 -12.667 -4.66699 -23.5 -14 -32.5s-20.333 -13.5 -33 -13.5s-23.5 4.5 -32.5 13.5
s-13.5 19.833 -13.5 32.5v274c0 80.667 -36.333 121 -109 121c-32 0 -60.833 -8 -86.5 -24s-51.167 -39.667 -76.5 -71v-300c0 -12.667 -4.66699 -23.5 -14 -32.5s-20.333 -13.5 -33 -13.5s-23.5 4.5 -32.5 13.5z" />
    <glyph glyph-name="uni006E_uni0302.liga" unicode="n&#x302;" horiz-adv-x="609" 
d="M189.5 578.5c-6.33301 6.33301 -9.50293 13.166 -9.50293 20.499s2.66699 14.333 8 21l68 70c12.667 13.333 26.334 20 41.001 20h38c14.667 0 28.334 -6.66699 41.001 -20l68 -70c5.33301 -6.66699 8 -13.667 8 -21s-3.16699 -14.166 -9.5 -20.499
s-13.5 -9.5 -21.5 -9.5c-7.33301 0 -13.666 2.33301 -18.999 7l-78 66c-2 2.66699 -4.66699 4 -8 4c-2.66699 0 -5.33398 -1.33301 -8.00098 -4l-78 -66c-5.33301 -4.66699 -11.666 -7 -18.999 -7c-8 0 -15.167 3.16699 -21.5 9.5zM91.4971 7.5
c-9 9 -13.498 19.834 -13.498 32.501v429c0 12.667 4.5 23.667 13.5 33s19.833 14 32.5 14s23.667 -4.66699 33 -14s14 -20.333 14 -33v-38c27.333 29.333 55.666 51.666 84.999 66.999s62.666 23 99.999 23c36.667 0 69 -8.66699 97 -26
c26.667 -17.333 47.167 -41 61.5 -71s21.5 -63.333 21.5 -100v-284c0 -12.667 -4.66699 -23.5 -14 -32.5s-20.333 -13.5 -33 -13.5s-23.5 4.5 -32.5 13.5s-13.5 19.833 -13.5 32.5v274c0 80.667 -36.333 121 -109 121c-32 0 -60.833 -8 -86.5 -24s-51.167 -39.667 -76.5 -71
v-300c0 -12.667 -4.66699 -23.5 -14 -32.5s-20.333 -13.5 -33 -13.5s-23.5 4.5 -32.5 13.5z" />
    <glyph glyph-name="uni006E_uni030C.liga" unicode="n&#x30c;" horiz-adv-x="609" 
d="M256 589l-67.9971 70c-5.33301 6.66699 -8 13.667 -8 21s3.16699 14.166 9.5 20.499s13.5 9.5 21.5 9.5c7.33301 0 13.666 -2.33301 18.999 -7l78 -66c4 -2.66699 6.66699 -4 8 -4c2.66699 0 5.33398 1.33301 8.00098 4l78 66c5.33301 4.66699 11.666 7 18.999 7
c8 0 15.167 -3.16699 21.5 -9.5s9.5 -13.166 9.5 -20.499s-2.66699 -14.333 -8 -21l-68 -70c-12.667 -13.333 -26.334 -20 -41.001 -20h-38c-14.667 0 -28.334 6.66699 -41.001 20zM91.5029 7.5c-9 9 -13.498 19.834 -13.498 32.501v429c0 12.667 4.5 23.667 13.5 33
s19.833 14 32.5 14s23.667 -4.66699 33 -14s14 -20.333 14 -33v-38c27.333 29.333 55.666 51.666 84.999 66.999s62.666 23 99.999 23c36.667 0 69 -8.66699 97 -26c26.667 -17.333 47.167 -41 61.5 -71s21.5 -63.333 21.5 -100v-284c0 -12.667 -4.66699 -23.5 -14 -32.5
s-20.333 -13.5 -33 -13.5s-23.5 4.5 -32.5 13.5s-13.5 19.833 -13.5 32.5v274c0 80.667 -36.333 121 -109 121c-32 0 -60.833 -8 -86.5 -24s-51.167 -39.667 -76.5 -71v-300c0 -12.667 -4.66699 -23.5 -14 -32.5s-20.333 -13.5 -33 -13.5s-23.5 4.5 -32.5 13.5z" />
    <glyph glyph-name="uni006E_uni0306.liga" unicode="n&#x306;" horiz-adv-x="609" 
d="M230 580.5c-25.333 14.333 -43.6641 34.5 -54.9971 60.5c-2 4 -3 8.66699 -3 14c0 8.66699 3 16.167 9 22.5s13.667 9.5 23 9.5c13.333 0 23 -6.66699 29 -20c7.33301 -15.333 18.166 -27.166 32.499 -35.499s31.166 -12.5 50.499 -12.5s36.166 4.16699 50.499 12.5
s25.166 20.166 32.499 35.499c6 13.333 15.667 20 29 20c9.33301 0 17 -3.16699 23 -9.5s9 -13.833 9 -22.5c0 -5.33301 -1 -10 -3 -14c-11.333 -26 -29.666 -46.167 -54.999 -60.5s-54 -21.5 -86 -21.5s-60.667 7.16699 -86 21.5zM91.502 7.5
c-9 9 -13.498 19.834 -13.498 32.501v429c0 12.667 4.5 23.667 13.5 33s19.833 14 32.5 14s23.667 -4.66699 33 -14s14 -20.333 14 -33v-38c27.333 29.333 55.666 51.666 84.999 66.999s62.666 23 99.999 23c36.667 0 69 -8.66699 97 -26
c26.667 -17.333 47.167 -41 61.5 -71s21.5 -63.333 21.5 -100v-284c0 -12.667 -4.66699 -23.5 -14 -32.5s-20.333 -13.5 -33 -13.5s-23.5 4.5 -32.5 13.5s-13.5 19.833 -13.5 32.5v274c0 80.667 -36.333 121 -109 121c-32 0 -60.833 -8 -86.5 -24s-51.167 -39.667 -76.5 -71
v-300c0 -12.667 -4.66699 -23.5 -14 -32.5s-20.333 -13.5 -33 -13.5s-23.5 4.5 -32.5 13.5z" />
    <glyph glyph-name="uni006E_uni0304.liga" unicode="n&#x304;" horiz-adv-x="609" 
d="M177 598c-6 6 -9 13.333 -9 22s3 16 9 22s13.333 9 22 9h234c8.66699 0 16 -3 22 -9s9 -13.333 9 -22s-3 -16 -9 -22s-13.333 -9 -22 -9h-234c-8.66699 0 -16 3 -22 9zM91.5 7.5c-9 9 -13.498 19.834 -13.498 32.501v429c0 12.667 4.5 23.667 13.5 33s19.833 14 32.5 14
s23.667 -4.66699 33 -14s14 -20.333 14 -33v-38c27.333 29.333 55.666 51.666 84.999 66.999s62.666 23 99.999 23c36.667 0 69 -8.66699 97 -26c26.667 -17.333 47.167 -41 61.5 -71s21.5 -63.333 21.5 -100v-284c0 -12.667 -4.66699 -23.5 -14 -32.5
s-20.333 -13.5 -33 -13.5s-23.5 4.5 -32.5 13.5s-13.5 19.833 -13.5 32.5v274c0 80.667 -36.333 121 -109 121c-32 0 -60.833 -8 -86.5 -24s-51.167 -39.667 -76.5 -71v-300c0 -12.667 -4.66699 -23.5 -14 -32.5s-20.333 -13.5 -33 -13.5s-23.5 4.5 -32.5 13.5z" />
    <glyph glyph-name="uni006E_uni030D.liga" unicode="n&#x30d;" horiz-adv-x="609" 
d="M288.5 750c6.33301 6.66699 15.5 10 27.5 10c11.333 0 20.333 -3.16699 27 -9.5s10 -15.5 10 -27.5v-117c0 -11.333 -3.16699 -20.333 -9.5 -27s-15.5 -10 -27.5 -10c-11.333 0 -20.333 3.16699 -27 9.5s-10 15.5 -10 27.5v117c0 11.333 3.16699 20.333 9.5 27zM91.5 7.5
c-9 9 -13.498 19.834 -13.498 32.501v429c0 12.667 4.5 23.667 13.5 33s19.833 14 32.5 14s23.667 -4.66699 33 -14s14 -20.333 14 -33v-38c27.333 29.333 55.666 51.666 84.999 66.999s62.666 23 99.999 23c36.667 0 69 -8.66699 97 -26
c26.667 -17.333 47.167 -41 61.5 -71s21.5 -63.333 21.5 -100v-284c0 -12.667 -4.66699 -23.5 -14 -32.5s-20.333 -13.5 -33 -13.5s-23.5 4.5 -32.5 13.5s-13.5 19.833 -13.5 32.5v274c0 80.667 -36.333 121 -109 121c-32 0 -60.833 -8 -86.5 -24s-51.167 -39.667 -76.5 -71
v-300c0 -12.667 -4.66699 -23.5 -14 -32.5s-20.333 -13.5 -33 -13.5s-23.5 4.5 -32.5 13.5z" />
    <glyph glyph-name="o_gravecomb.liga" unicode="o&#x300;" horiz-adv-x="608" 
d="M281 570l-69 82c-6.66699 10 -10 18.667 -10 26c0 12 3.5 21.333 10.5 28s16.167 10 27.5 10c16 0 27.333 -6.66699 34 -20l51 -89c4.66699 -8 7 -14.667 7 -20c0 -8 -2.5 -14.667 -7.5 -20s-11.833 -8 -20.5 -8c-9.33301 0 -17 3.66699 -23 11zM169 22
c-38.667 22.667 -68.667 54.333 -90 95s-32 86.667 -32 138c0 52 10.667 98.333 32 139s51.5 72 90.5 94s83.833 33 134.5 33s95.334 -11 134.001 -33c39.333 -22.667 69.666 -54.167 90.999 -94.5s32 -86.5 32 -138.5s-10.667 -98 -32 -138
c-22 -41.333 -52.5 -73 -91.5 -95s-83.5 -33 -133.5 -33c-51.333 0 -96.333 11 -135 33zM383 92.999c26 13.333 46.667 33.833 62 61.5s23 61.5 23 101.5c0 42 -8 76 -24 102c-14.667 25.333 -34.167 44.666 -58.5 57.999s-51.5 20 -81.5 20
c-27.333 0 -53.666 -6 -78.999 -18c-26 -13.333 -46.667 -33.666 -62 -60.999s-23 -61 -23 -101c0 -42.667 8 -77 24 -103c14.667 -26 34.167 -45.667 58.5 -59s51.5 -20 81.5 -20c27.333 0 53.666 6.33301 78.999 19z" />
    <glyph glyph-name="uni006F_uni0300_uni0358.liga" unicode="o&#x300;&#x358;" horiz-adv-x="608" 
d="M281 570l-69 82c-6.66699 10 -10 18.667 -10 26c0 12 3.5 21.333 10.5 28s16.167 10 27.5 10c16 0 27.333 -6.66699 34 -20l51 -89c4.66699 -8 7 -14.667 7 -20c0 -8 -2.5 -14.667 -7.5 -20s-11.833 -8 -20.5 -8c-9.33301 0 -17 3.66699 -23 11zM524.5 499.5
c-10.333 10.333 -15.5 22.5 -15.5 36.5s5.16699 26.167 15.5 36.5s22.5 15.5 36.5 15.5s26.167 -5.16699 36.5 -15.5s15.5 -22.5 15.5 -36.5s-5.16699 -26.167 -15.5 -36.5s-22.5 -15.5 -36.5 -15.5s-26.167 5.16699 -36.5 15.5zM169 22
c-38.667 22.667 -68.667 54.333 -90 95s-32 86.667 -32 138c0 52 10.667 98.333 32 139s51.5 72 90.5 94s83.833 33 134.5 33s95.334 -11 134.001 -33c39.333 -22.667 69.666 -54.167 90.999 -94.5s32 -86.5 32 -138.5s-10.667 -98 -32 -138
c-22 -41.333 -52.5 -73 -91.5 -95s-83.5 -33 -133.5 -33c-51.333 0 -96.333 11 -135 33zM383 92.999c26 13.333 46.667 33.833 62 61.5s23 61.5 23 101.5c0 42 -8 76 -24 102c-14.667 25.333 -34.167 44.666 -58.5 57.999s-51.5 20 -81.5 20
c-27.333 0 -53.666 -6 -78.999 -18c-26 -13.333 -46.667 -33.666 -62 -60.999s-23 -61 -23 -101c0 -42.667 8 -77 24 -103c14.667 -26 34.167 -45.667 58.5 -59s51.5 -20 81.5 -20c27.333 0 53.666 6.33301 78.999 19z" />
    <glyph glyph-name="o_acutecomb.liga" unicode="o&#x301;" horiz-adv-x="608" 
d="M284 566.5c-5.33301 5 -8 11.834 -8 20.501c0 5.33301 2.33301 12 7 20l51 89c6.66699 13.333 18 20 34 20c10.667 0 19.667 -3.5 27 -10.5s11 -16.167 11 -27.5c0 -10.667 -3.33301 -19.334 -10 -26.001l-69 -82c-6 -7.33301 -13.667 -11 -23 -11
c-8 0 -14.667 2.5 -20 7.5zM169 22.001c-38.667 22.667 -68.667 54.333 -90 95s-32 86.667 -32 138c0 52 10.667 98.333 32 139s51.5 72 90.5 94s83.833 33 134.5 33s95.334 -11 134.001 -33c39.333 -22.667 69.666 -54.167 90.999 -94.5s32 -86.5 32 -138.5
s-10.667 -98 -32 -138c-22 -41.333 -52.5 -73 -91.5 -95s-83.5 -33 -133.5 -33c-51.333 0 -96.333 11 -135 33zM383 93c26 13.333 46.667 33.833 62 61.5s23 61.5 23 101.5c0 42 -8 76 -24 102c-14.667 25.333 -34.167 44.666 -58.5 57.999s-51.5 20 -81.5 20
c-27.333 0 -53.666 -6 -78.999 -18c-26 -13.333 -46.667 -33.666 -62 -60.999s-23 -61 -23 -101c0 -42.667 8 -77 24 -103c14.667 -26 34.167 -45.667 58.5 -59s51.5 -20 81.5 -20c27.333 0 53.666 6.33301 78.999 19z" />
    <glyph glyph-name="uni006F_uni0301_uni0358.liga" unicode="o&#x301;&#x358;" horiz-adv-x="608" 
d="M284 566.5c-5.33301 5 -8 11.834 -8 20.501c0 5.33301 2.33301 12 7 20l51 89c6.66699 13.333 18 20 34 20c10.667 0 19.667 -3.5 27 -10.5s11 -16.167 11 -27.5c0 -10.667 -3.33301 -19.334 -10 -26.001l-69 -82c-6 -7.33301 -13.667 -11 -23 -11
c-8 0 -14.667 2.5 -20 7.5zM524.5 499.501c-10.333 10.333 -15.5 22.5 -15.5 36.5s5.16699 26.167 15.5 36.5s22.5 15.5 36.5 15.5s26.167 -5.16699 36.5 -15.5s15.5 -22.5 15.5 -36.5s-5.16699 -26.167 -15.5 -36.5s-22.5 -15.5 -36.5 -15.5s-26.167 5.16699 -36.5 15.5z
M169 22.001c-38.667 22.667 -68.667 54.333 -90 95s-32 86.667 -32 138c0 52 10.667 98.333 32 139s51.5 72 90.5 94s83.833 33 134.5 33s95.334 -11 134.001 -33c39.333 -22.667 69.666 -54.167 90.999 -94.5s32 -86.5 32 -138.5s-10.667 -98 -32 -138
c-22 -41.333 -52.5 -73 -91.5 -95s-83.5 -33 -133.5 -33c-51.333 0 -96.333 11 -135 33zM383 93c26 13.333 46.667 33.833 62 61.5s23 61.5 23 101.5c0 42 -8 76 -24 102c-14.667 25.333 -34.167 44.666 -58.5 57.999s-51.5 20 -81.5 20c-27.333 0 -53.666 -6 -78.999 -18
c-26 -13.333 -46.667 -33.666 -62 -60.999s-23 -61 -23 -101c0 -42.667 8 -77 24 -103c14.667 -26 34.167 -45.667 58.5 -59s51.5 -20 81.5 -20c27.333 0 53.666 6.33301 78.999 19z" />
    <glyph glyph-name="uni006F_uni030B.liga" unicode="o&#x30b;" horiz-adv-x="608" 
d="M213 576c-5.33301 4.66699 -8 10.999 -8 18.999c0 4 0.333008 6.66699 1 8l27 90c2.66699 10 7.66699 17.833 15 23.5s15.333 8.5 24 8.5c10 0 18.5 -3.16699 25.5 -9.5s10.5 -14.5 10.5 -24.5c0 -7.33301 -2.33301 -15.666 -7 -24.999l-41 -79
c-6.66699 -12 -15.667 -18 -27 -18c-8 0 -14.667 2.33301 -20 7zM329 575.999c-5.33301 4.66699 -8 10.999 -8 18.999c0 4 0.333008 6.66699 1 8l27 90c2.66699 10 7.66699 17.833 15 23.5s15.333 8.5 24 8.5c10 0 18.5 -3.16699 25.5 -9.5s10.5 -14.5 10.5 -24.5
c0 -7.33301 -2.33301 -15.666 -7 -24.999l-41 -79c-6.66699 -12 -15.667 -18 -27 -18c-8 0 -14.667 2.33301 -20 7zM169 21.998c-38.667 22.667 -68.667 54.333 -90 95s-32 86.667 -32 138c0 52 10.667 98.333 32 139s51.5 72 90.5 94s83.833 33 134.5 33
s95.334 -11 134.001 -33c39.333 -22.667 69.666 -54.167 90.999 -94.5s32 -86.5 32 -138.5s-10.667 -98 -32 -138c-22 -41.333 -52.5 -73 -91.5 -95s-83.5 -33 -133.5 -33c-51.333 0 -96.333 11 -135 33zM383 92.9971c26 13.333 46.667 33.833 62 61.5s23 61.5 23 101.5
c0 42 -8 76 -24 102c-14.667 25.333 -34.167 44.666 -58.5 57.999s-51.5 20 -81.5 20c-27.333 0 -53.666 -6 -78.999 -18c-26 -13.333 -46.667 -33.666 -62 -60.999s-23 -61 -23 -101c0 -42.667 8 -77 24 -103c14.667 -26 34.167 -45.667 58.5 -59s51.5 -20 81.5 -20
c27.333 0 53.666 6.33301 78.999 19z" />
    <glyph glyph-name="uni006F_uni030B_uni0358.liga" unicode="o&#x30b;&#x358;" horiz-adv-x="608" 
d="M213 576c-5.33301 4.66699 -8 10.999 -8 18.999c0 4 0.333008 6.66699 1 8l27 90c2.66699 10 7.66699 17.833 15 23.5s15.333 8.5 24 8.5c10 0 18.5 -3.16699 25.5 -9.5s10.5 -14.5 10.5 -24.5c0 -7.33301 -2.33301 -15.666 -7 -24.999l-41 -79
c-6.66699 -12 -15.667 -18 -27 -18c-8 0 -14.667 2.33301 -20 7zM329 575.999c-5.33301 4.66699 -8 10.999 -8 18.999c0 4 0.333008 6.66699 1 8l27 90c2.66699 10 7.66699 17.833 15 23.5s15.333 8.5 24 8.5c10 0 18.5 -3.16699 25.5 -9.5s10.5 -14.5 10.5 -24.5
c0 -7.33301 -2.33301 -15.666 -7 -24.999l-41 -79c-6.66699 -12 -15.667 -18 -27 -18c-8 0 -14.667 2.33301 -20 7zM524.5 499.498c-10.333 10.333 -15.5 22.5 -15.5 36.5s5.16699 26.167 15.5 36.5s22.5 15.5 36.5 15.5s26.167 -5.16699 36.5 -15.5s15.5 -22.5 15.5 -36.5
s-5.16699 -26.167 -15.5 -36.5s-22.5 -15.5 -36.5 -15.5s-26.167 5.16699 -36.5 15.5zM169 21.998c-38.667 22.667 -68.667 54.333 -90 95s-32 86.667 -32 138c0 52 10.667 98.333 32 139s51.5 72 90.5 94s83.833 33 134.5 33s95.334 -11 134.001 -33
c39.333 -22.667 69.666 -54.167 90.999 -94.5s32 -86.5 32 -138.5s-10.667 -98 -32 -138c-22 -41.333 -52.5 -73 -91.5 -95s-83.5 -33 -133.5 -33c-51.333 0 -96.333 11 -135 33zM383 92.9971c26 13.333 46.667 33.833 62 61.5s23 61.5 23 101.5c0 42 -8 76 -24 102
c-14.667 25.333 -34.167 44.666 -58.5 57.999s-51.5 20 -81.5 20c-27.333 0 -53.666 -6 -78.999 -18c-26 -13.333 -46.667 -33.666 -62 -60.999s-23 -61 -23 -101c0 -42.667 8 -77 24 -103c14.667 -26 34.167 -45.667 58.5 -59s51.5 -20 81.5 -20
c27.333 0 53.666 6.33301 78.999 19z" />
    <glyph glyph-name="uni006F_uni0302.liga" unicode="o&#x302;" horiz-adv-x="608" 
d="M177.5 578.5c-6.33301 6.33301 -9.50293 13.166 -9.50293 20.499s2.66699 14.333 8 21l68 70c12.667 13.333 26.334 20 41.001 20h38c14.667 0 28.334 -6.66699 41.001 -20l68 -70c5.33301 -6.66699 8 -13.667 8 -21s-3.16699 -14.166 -9.5 -20.499
s-13.5 -9.5 -21.5 -9.5c-7.33301 0 -13.666 2.33301 -18.999 7l-78 66c-2 2.66699 -4.66699 4 -8 4c-2.66699 0 -5.33398 -1.33301 -8.00098 -4l-78 -66c-5.33301 -4.66699 -11.666 -7 -18.999 -7c-8 0 -15.167 3.16699 -21.5 9.5zM168.997 22
c-38.667 22.667 -68.667 54.333 -90 95s-32 86.667 -32 138c0 52 10.667 98.333 32 139s51.5 72 90.5 94s83.833 33 134.5 33s95.334 -11 134.001 -33c39.333 -22.667 69.666 -54.167 90.999 -94.5s32 -86.5 32 -138.5s-10.667 -98 -32 -138
c-22 -41.333 -52.5 -73 -91.5 -95s-83.5 -33 -133.5 -33c-51.333 0 -96.333 11 -135 33zM382.997 92.999c26 13.333 46.667 33.833 62 61.5s23 61.5 23 101.5c0 42 -8 76 -24 102c-14.667 25.333 -34.167 44.666 -58.5 57.999s-51.5 20 -81.5 20
c-27.333 0 -53.666 -6 -78.999 -18c-26 -13.333 -46.667 -33.666 -62 -60.999s-23 -61 -23 -101c0 -42.667 8 -77 24 -103c14.667 -26 34.167 -45.667 58.5 -59s51.5 -20 81.5 -20c27.333 0 53.666 6.33301 78.999 19z" />
    <glyph glyph-name="uni006F_uni0302_uni0358.liga" unicode="o&#x302;&#x358;" horiz-adv-x="608" 
d="M177.5 578.5c-6.33301 6.33301 -9.50293 13.166 -9.50293 20.499s2.66699 14.333 8 21l68 70c12.667 13.333 26.334 20 41.001 20h38c14.667 0 28.334 -6.66699 41.001 -20l68 -70c5.33301 -6.66699 8 -13.667 8 -21s-3.16699 -14.166 -9.5 -20.499
s-13.5 -9.5 -21.5 -9.5c-7.33301 0 -13.666 2.33301 -18.999 7l-78 66c-2 2.66699 -4.66699 4 -8 4c-2.66699 0 -5.33398 -1.33301 -8.00098 -4l-78 -66c-5.33301 -4.66699 -11.666 -7 -18.999 -7c-8 0 -15.167 3.16699 -21.5 9.5zM524.497 499.5
c-10.333 10.333 -15.5 22.5 -15.5 36.5s5.16699 26.167 15.5 36.5s22.5 15.5 36.5 15.5s26.167 -5.16699 36.5 -15.5s15.5 -22.5 15.5 -36.5s-5.16699 -26.167 -15.5 -36.5s-22.5 -15.5 -36.5 -15.5s-26.167 5.16699 -36.5 15.5zM168.997 22
c-38.667 22.667 -68.667 54.333 -90 95s-32 86.667 -32 138c0 52 10.667 98.333 32 139s51.5 72 90.5 94s83.833 33 134.5 33s95.334 -11 134.001 -33c39.333 -22.667 69.666 -54.167 90.999 -94.5s32 -86.5 32 -138.5s-10.667 -98 -32 -138
c-22 -41.333 -52.5 -73 -91.5 -95s-83.5 -33 -133.5 -33c-51.333 0 -96.333 11 -135 33zM382.997 92.999c26 13.333 46.667 33.833 62 61.5s23 61.5 23 101.5c0 42 -8 76 -24 102c-14.667 25.333 -34.167 44.666 -58.5 57.999s-51.5 20 -81.5 20
c-27.333 0 -53.666 -6 -78.999 -18c-26 -13.333 -46.667 -33.666 -62 -60.999s-23 -61 -23 -101c0 -42.667 8 -77 24 -103c14.667 -26 34.167 -45.667 58.5 -59s51.5 -20 81.5 -20c27.333 0 53.666 6.33301 78.999 19z" />
    <glyph glyph-name="uni006F_uni030C.liga" unicode="o&#x30c;" horiz-adv-x="608" 
d="M244 589l-67.9971 70c-5.33301 6.66699 -8 13.667 -8 21s3.16699 14.166 9.5 20.499s13.5 9.5 21.5 9.5c7.33301 0 13.666 -2.33301 18.999 -7l78 -66c4 -2.66699 6.66699 -4 8 -4c2.66699 0 5.33398 1.33301 8.00098 4l78 66c5.33301 4.66699 11.666 7 18.999 7
c8 0 15.167 -3.16699 21.5 -9.5s9.5 -13.166 9.5 -20.499s-2.66699 -14.333 -8 -21l-68 -70c-12.667 -13.333 -26.334 -20 -41.001 -20h-38c-14.667 0 -28.334 6.66699 -41.001 20zM169.003 22c-38.667 22.667 -68.667 54.333 -90 95s-32 86.667 -32 138
c0 52 10.667 98.333 32 139s51.5 72 90.5 94s83.833 33 134.5 33s95.334 -11 134.001 -33c39.333 -22.667 69.666 -54.167 90.999 -94.5s32 -86.5 32 -138.5s-10.667 -98 -32 -138c-22 -41.333 -52.5 -73 -91.5 -95s-83.5 -33 -133.5 -33c-51.333 0 -96.333 11 -135 33z
M383.003 92.999c26 13.333 46.667 33.833 62 61.5s23 61.5 23 101.5c0 42 -8 76 -24 102c-14.667 25.333 -34.167 44.666 -58.5 57.999s-51.5 20 -81.5 20c-27.333 0 -53.666 -6 -78.999 -18c-26 -13.333 -46.667 -33.666 -62 -60.999s-23 -61 -23 -101
c0 -42.667 8 -77 24 -103c14.667 -26 34.167 -45.667 58.5 -59s51.5 -20 81.5 -20c27.333 0 53.666 6.33301 78.999 19z" />
    <glyph glyph-name="uni006F_uni030C_uni0358.liga" unicode="o&#x30c;&#x358;" horiz-adv-x="608" 
d="M244 589l-67.9971 70c-5.33301 6.66699 -8 13.667 -8 21s3.16699 14.166 9.5 20.499s13.5 9.5 21.5 9.5c7.33301 0 13.666 -2.33301 18.999 -7l78 -66c4 -2.66699 6.66699 -4 8 -4c2.66699 0 5.33398 1.33301 8.00098 4l78 66c5.33301 4.66699 11.666 7 18.999 7
c8 0 15.167 -3.16699 21.5 -9.5s9.5 -13.166 9.5 -20.499s-2.66699 -14.333 -8 -21l-68 -70c-12.667 -13.333 -26.334 -20 -41.001 -20h-38c-14.667 0 -28.334 6.66699 -41.001 20zM524.503 499.5c-10.333 10.333 -15.5 22.5 -15.5 36.5s5.16699 26.167 15.5 36.5
s22.5 15.5 36.5 15.5s26.167 -5.16699 36.5 -15.5s15.5 -22.5 15.5 -36.5s-5.16699 -26.167 -15.5 -36.5s-22.5 -15.5 -36.5 -15.5s-26.167 5.16699 -36.5 15.5zM169.003 22c-38.667 22.667 -68.667 54.333 -90 95s-32 86.667 -32 138c0 52 10.667 98.333 32 139
s51.5 72 90.5 94s83.833 33 134.5 33s95.334 -11 134.001 -33c39.333 -22.667 69.666 -54.167 90.999 -94.5s32 -86.5 32 -138.5s-10.667 -98 -32 -138c-22 -41.333 -52.5 -73 -91.5 -95s-83.5 -33 -133.5 -33c-51.333 0 -96.333 11 -135 33zM383.003 92.999
c26 13.333 46.667 33.833 62 61.5s23 61.5 23 101.5c0 42 -8 76 -24 102c-14.667 25.333 -34.167 44.666 -58.5 57.999s-51.5 20 -81.5 20c-27.333 0 -53.666 -6 -78.999 -18c-26 -13.333 -46.667 -33.666 -62 -60.999s-23 -61 -23 -101c0 -42.667 8 -77 24 -103
c14.667 -26 34.167 -45.667 58.5 -59s51.5 -20 81.5 -20c27.333 0 53.666 6.33301 78.999 19z" />
    <glyph glyph-name="uni006F_uni0306.liga" unicode="o&#x306;" horiz-adv-x="608" 
d="M218 580.5c-25.333 14.333 -43.6641 34.5 -54.9971 60.5c-2 4 -3 8.66699 -3 14c0 8.66699 3 16.167 9 22.5s13.667 9.5 23 9.5c13.333 0 23 -6.66699 29 -20c7.33301 -15.333 18.166 -27.166 32.499 -35.499s31.166 -12.5 50.499 -12.5s36.166 4.16699 50.499 12.5
s25.166 20.166 32.499 35.499c6 13.333 15.667 20 29 20c9.33301 0 17 -3.16699 23 -9.5s9 -13.833 9 -22.5c0 -5.33301 -1 -10 -3 -14c-11.333 -26 -29.666 -46.167 -54.999 -60.5s-54 -21.5 -86 -21.5s-60.667 7.16699 -86 21.5zM169.002 22
c-38.667 22.667 -68.667 54.333 -90 95s-32 86.667 -32 138c0 52 10.667 98.333 32 139s51.5 72 90.5 94s83.833 33 134.5 33s95.334 -11 134.001 -33c39.333 -22.667 69.666 -54.167 90.999 -94.5s32 -86.5 32 -138.5s-10.667 -98 -32 -138
c-22 -41.333 -52.5 -73 -91.5 -95s-83.5 -33 -133.5 -33c-51.333 0 -96.333 11 -135 33zM383.002 92.999c26 13.333 46.667 33.833 62 61.5s23 61.5 23 101.5c0 42 -8 76 -24 102c-14.667 25.333 -34.167 44.666 -58.5 57.999s-51.5 20 -81.5 20
c-27.333 0 -53.666 -6 -78.999 -18c-26 -13.333 -46.667 -33.666 -62 -60.999s-23 -61 -23 -101c0 -42.667 8 -77 24 -103c14.667 -26 34.167 -45.667 58.5 -59s51.5 -20 81.5 -20c27.333 0 53.666 6.33301 78.999 19z" />
    <glyph glyph-name="uni006F_uni0306_uni0358.liga" unicode="o&#x306;&#x358;" horiz-adv-x="608" 
d="M218 580.5c-25.333 14.333 -43.6641 34.5 -54.9971 60.5c-2 4 -3 8.66699 -3 14c0 8.66699 3 16.167 9 22.5s13.667 9.5 23 9.5c13.333 0 23 -6.66699 29 -20c7.33301 -15.333 18.166 -27.166 32.499 -35.499s31.166 -12.5 50.499 -12.5s36.166 4.16699 50.499 12.5
s25.166 20.166 32.499 35.499c6 13.333 15.667 20 29 20c9.33301 0 17 -3.16699 23 -9.5s9 -13.833 9 -22.5c0 -5.33301 -1 -10 -3 -14c-11.333 -26 -29.666 -46.167 -54.999 -60.5s-54 -21.5 -86 -21.5s-60.667 7.16699 -86 21.5zM524.502 499.5
c-10.333 10.333 -15.5 22.5 -15.5 36.5s5.16699 26.167 15.5 36.5s22.5 15.5 36.5 15.5s26.167 -5.16699 36.5 -15.5s15.5 -22.5 15.5 -36.5s-5.16699 -26.167 -15.5 -36.5s-22.5 -15.5 -36.5 -15.5s-26.167 5.16699 -36.5 15.5zM169.002 22
c-38.667 22.667 -68.667 54.333 -90 95s-32 86.667 -32 138c0 52 10.667 98.333 32 139s51.5 72 90.5 94s83.833 33 134.5 33s95.334 -11 134.001 -33c39.333 -22.667 69.666 -54.167 90.999 -94.5s32 -86.5 32 -138.5s-10.667 -98 -32 -138
c-22 -41.333 -52.5 -73 -91.5 -95s-83.5 -33 -133.5 -33c-51.333 0 -96.333 11 -135 33zM383.002 92.999c26 13.333 46.667 33.833 62 61.5s23 61.5 23 101.5c0 42 -8 76 -24 102c-14.667 25.333 -34.167 44.666 -58.5 57.999s-51.5 20 -81.5 20
c-27.333 0 -53.666 -6 -78.999 -18c-26 -13.333 -46.667 -33.666 -62 -60.999s-23 -61 -23 -101c0 -42.667 8 -77 24 -103c14.667 -26 34.167 -45.667 58.5 -59s51.5 -20 81.5 -20c27.333 0 53.666 6.33301 78.999 19z" />
    <glyph glyph-name="o_tildecomb.liga" unicode="o&#x303;" horiz-adv-x="608" 
d="M157.5 597c-5 4.66699 -7.49902 10.3359 -7.49902 17.0029c0 23.333 8.33301 45.166 25 65.499s36.667 30.5 60 30.5c12.667 0 24.667 -1.83301 36 -5.5s26 -9.83398 44 -18.501c17.333 -8.66699 31.166 -14.667 41.499 -18s21.166 -5 32.499 -5
c17.333 0 29.333 8.66699 36 26c5.33301 14.667 14 22 26 22c6.66699 0 12.334 -2.16699 17.001 -6.5s7 -9.83301 7 -16.5c0 -24.667 -8.33301 -46.834 -25 -66.501s-36.667 -29.5 -60 -29.5c-12.667 0 -24.667 1.83301 -36 5.5s-26.666 10.167 -45.999 19.5
c-17.333 8.66699 -31 14.667 -41 18s-20.333 5 -31 5c-18.667 0 -31.334 -10.333 -38.001 -31c-4 -12.667 -12 -19 -24 -19c-6 0 -11.5 2.33301 -16.5 7zM169.001 22.002c-38.667 22.667 -68.667 54.333 -90 95s-32 86.667 -32 138c0 52 10.667 98.333 32 139
s51.5 72 90.5 94s83.833 33 134.5 33s95.334 -11 134.001 -33c39.333 -22.667 69.666 -54.167 90.999 -94.5s32 -86.5 32 -138.5s-10.667 -98 -32 -138c-22 -41.333 -52.5 -73 -91.5 -95s-83.5 -33 -133.5 -33c-51.333 0 -96.333 11 -135 33zM383.001 93.001
c26 13.333 46.667 33.833 62 61.5s23 61.5 23 101.5c0 42 -8 76 -24 102c-14.667 25.333 -34.167 44.666 -58.5 57.999s-51.5 20 -81.5 20c-27.333 0 -53.666 -6 -78.999 -18c-26 -13.333 -46.667 -33.666 -62 -60.999s-23 -61 -23 -101c0 -42.667 8 -77 24 -103
c14.667 -26 34.167 -45.667 58.5 -59s51.5 -20 81.5 -20c27.333 0 53.666 6.33301 78.999 19z" />
    <glyph glyph-name="uni006F_uni0304.liga" unicode="o&#x304;" horiz-adv-x="608" 
d="M165 598c-6 6 -9 13.333 -9 22s3 16 9 22s13.333 9 22 9h234c8.66699 0 16 -3 22 -9s9 -13.333 9 -22s-3 -16 -9 -22s-13.333 -9 -22 -9h-234c-8.66699 0 -16 3 -22 9zM169 22c-38.667 22.667 -68.667 54.333 -90 95s-32 86.667 -32 138c0 52 10.667 98.333 32 139
s51.5 72 90.5 94s83.833 33 134.5 33s95.334 -11 134.001 -33c39.333 -22.667 69.666 -54.167 90.999 -94.5s32 -86.5 32 -138.5s-10.667 -98 -32 -138c-22 -41.333 -52.5 -73 -91.5 -95s-83.5 -33 -133.5 -33c-51.333 0 -96.333 11 -135 33zM383 92.999
c26 13.333 46.667 33.833 62 61.5s23 61.5 23 101.5c0 42 -8 76 -24 102c-14.667 25.333 -34.167 44.666 -58.5 57.999s-51.5 20 -81.5 20c-27.333 0 -53.666 -6 -78.999 -18c-26 -13.333 -46.667 -33.666 -62 -60.999s-23 -61 -23 -101c0 -42.667 8 -77 24 -103
c14.667 -26 34.167 -45.667 58.5 -59s51.5 -20 81.5 -20c27.333 0 53.666 6.33301 78.999 19z" />
    <glyph glyph-name="uni006F_uni0304_uni0358.liga" unicode="o&#x304;&#x358;" horiz-adv-x="608" 
d="M165 598c-6 6 -9 13.333 -9 22s3 16 9 22s13.333 9 22 9h234c8.66699 0 16 -3 22 -9s9 -13.333 9 -22s-3 -16 -9 -22s-13.333 -9 -22 -9h-234c-8.66699 0 -16 3 -22 9zM524.5 499.5c-10.333 10.333 -15.5 22.5 -15.5 36.5s5.16699 26.167 15.5 36.5s22.5 15.5 36.5 15.5
s26.167 -5.16699 36.5 -15.5s15.5 -22.5 15.5 -36.5s-5.16699 -26.167 -15.5 -36.5s-22.5 -15.5 -36.5 -15.5s-26.167 5.16699 -36.5 15.5zM169 22c-38.667 22.667 -68.667 54.333 -90 95s-32 86.667 -32 138c0 52 10.667 98.333 32 139s51.5 72 90.5 94s83.833 33 134.5 33
s95.334 -11 134.001 -33c39.333 -22.667 69.666 -54.167 90.999 -94.5s32 -86.5 32 -138.5s-10.667 -98 -32 -138c-22 -41.333 -52.5 -73 -91.5 -95s-83.5 -33 -133.5 -33c-51.333 0 -96.333 11 -135 33zM383 92.999c26 13.333 46.667 33.833 62 61.5s23 61.5 23 101.5
c0 42 -8 76 -24 102c-14.667 25.333 -34.167 44.666 -58.5 57.999s-51.5 20 -81.5 20c-27.333 0 -53.666 -6 -78.999 -18c-26 -13.333 -46.667 -33.666 -62 -60.999s-23 -61 -23 -101c0 -42.667 8 -77 24 -103c14.667 -26 34.167 -45.667 58.5 -59s51.5 -20 81.5 -20
c27.333 0 53.666 6.33301 78.999 19z" />
    <glyph glyph-name="uni006F_uni030D.liga" unicode="o&#x30d;" horiz-adv-x="608" 
d="M276.5 750c6.33301 6.66699 15.5 10 27.5 10c11.333 0 20.333 -3.16699 27 -9.5s10 -15.5 10 -27.5v-117c0 -11.333 -3.16699 -20.333 -9.5 -27s-15.5 -10 -27.5 -10c-11.333 0 -20.333 3.16699 -27 9.5s-10 15.5 -10 27.5v117c0 11.333 3.16699 20.333 9.5 27zM169 22
c-38.667 22.667 -68.667 54.333 -90 95s-32 86.667 -32 138c0 52 10.667 98.333 32 139s51.5 72 90.5 94s83.833 33 134.5 33s95.334 -11 134.001 -33c39.333 -22.667 69.666 -54.167 90.999 -94.5s32 -86.5 32 -138.5s-10.667 -98 -32 -138
c-22 -41.333 -52.5 -73 -91.5 -95s-83.5 -33 -133.5 -33c-51.333 0 -96.333 11 -135 33zM383 92.999c26 13.333 46.667 33.833 62 61.5s23 61.5 23 101.5c0 42 -8 76 -24 102c-14.667 25.333 -34.167 44.666 -58.5 57.999s-51.5 20 -81.5 20
c-27.333 0 -53.666 -6 -78.999 -18c-26 -13.333 -46.667 -33.666 -62 -60.999s-23 -61 -23 -101c0 -42.667 8 -77 24 -103c14.667 -26 34.167 -45.667 58.5 -59s51.5 -20 81.5 -20c27.333 0 53.666 6.33301 78.999 19z" />
    <glyph glyph-name="uni006F_uni030D_uni0358.liga" unicode="o&#x30d;&#x358;" horiz-adv-x="608" 
d="M276.5 750c6.33301 6.66699 15.5 10 27.5 10c11.333 0 20.333 -3.16699 27 -9.5s10 -15.5 10 -27.5v-117c0 -11.333 -3.16699 -20.333 -9.5 -27s-15.5 -10 -27.5 -10c-11.333 0 -20.333 3.16699 -27 9.5s-10 15.5 -10 27.5v117c0 11.333 3.16699 20.333 9.5 27z
M524.5 499.5c-10.333 10.333 -15.5 22.5 -15.5 36.5s5.16699 26.167 15.5 36.5s22.5 15.5 36.5 15.5s26.167 -5.16699 36.5 -15.5s15.5 -22.5 15.5 -36.5s-5.16699 -26.167 -15.5 -36.5s-22.5 -15.5 -36.5 -15.5s-26.167 5.16699 -36.5 15.5zM169 22
c-38.667 22.667 -68.667 54.333 -90 95s-32 86.667 -32 138c0 52 10.667 98.333 32 139s51.5 72 90.5 94s83.833 33 134.5 33s95.334 -11 134.001 -33c39.333 -22.667 69.666 -54.167 90.999 -94.5s32 -86.5 32 -138.5s-10.667 -98 -32 -138
c-22 -41.333 -52.5 -73 -91.5 -95s-83.5 -33 -133.5 -33c-51.333 0 -96.333 11 -135 33zM383 92.999c26 13.333 46.667 33.833 62 61.5s23 61.5 23 101.5c0 42 -8 76 -24 102c-14.667 25.333 -34.167 44.666 -58.5 57.999s-51.5 20 -81.5 20
c-27.333 0 -53.666 -6 -78.999 -18c-26 -13.333 -46.667 -33.666 -62 -60.999s-23 -61 -23 -101c0 -42.667 8 -77 24 -103c14.667 -26 34.167 -45.667 58.5 -59s51.5 -20 81.5 -20c27.333 0 53.666 6.33301 78.999 19z" />
    <glyph glyph-name="uni006F_uni0358.liga" unicode="o&#x358;" horiz-adv-x="608" 
d="M524.5 499.5c-10.333 10.333 -15.5 22.5 -15.5 36.5s5.16699 26.167 15.5 36.5s22.5 15.5 36.5 15.5s26.167 -5.16699 36.5 -15.5s15.5 -22.5 15.5 -36.5s-5.16699 -26.167 -15.5 -36.5s-22.5 -15.5 -36.5 -15.5s-26.167 5.16699 -36.5 15.5zM169 22
c-38.667 22.667 -68.667 54.333 -90 95s-32 86.667 -32 138c0 52 10.667 98.333 32 139s51.5 72 90.5 94s83.833 33 134.5 33s95.334 -11 134.001 -33c39.333 -22.667 69.666 -54.167 90.999 -94.5s32 -86.5 32 -138.5s-10.667 -98 -32 -138
c-22 -41.333 -52.5 -73 -91.5 -95s-83.5 -33 -133.5 -33c-51.333 0 -96.333 11 -135 33zM383 92.999c26 13.333 46.667 33.833 62 61.5s23 61.5 23 101.5c0 42 -8 76 -24 102c-14.667 25.333 -34.167 44.666 -58.5 57.999s-51.5 20 -81.5 20
c-27.333 0 -53.666 -6 -78.999 -18c-26 -13.333 -46.667 -33.666 -62 -60.999s-23 -61 -23 -101c0 -42.667 8 -77 24 -103c14.667 -26 34.167 -45.667 58.5 -59s51.5 -20 81.5 -20c27.333 0 53.666 6.33301 78.999 19z" />
    <glyph glyph-name="uni006F_uni0358_uni0300.liga" unicode="o&#x358;&#x300;" horiz-adv-x="608" 
d="M281 570l-69 82c-6.66699 10 -10 18.667 -10 26c0 12 3.5 21.333 10.5 28s16.167 10 27.5 10c16 0 27.333 -6.66699 34 -20l51 -89c4.66699 -8 7 -14.667 7 -20c0 -8 -2.5 -14.667 -7.5 -20s-11.833 -8 -20.5 -8c-9.33301 0 -17 3.66699 -23 11zM524.5 499.5
c-10.333 10.333 -15.5 22.5 -15.5 36.5s5.16699 26.167 15.5 36.5s22.5 15.5 36.5 15.5s26.167 -5.16699 36.5 -15.5s15.5 -22.5 15.5 -36.5s-5.16699 -26.167 -15.5 -36.5s-22.5 -15.5 -36.5 -15.5s-26.167 5.16699 -36.5 15.5zM169 22
c-38.667 22.667 -68.667 54.333 -90 95s-32 86.667 -32 138c0 52 10.667 98.333 32 139s51.5 72 90.5 94s83.833 33 134.5 33s95.334 -11 134.001 -33c39.333 -22.667 69.666 -54.167 90.999 -94.5s32 -86.5 32 -138.5s-10.667 -98 -32 -138
c-22 -41.333 -52.5 -73 -91.5 -95s-83.5 -33 -133.5 -33c-51.333 0 -96.333 11 -135 33zM383 92.999c26 13.333 46.667 33.833 62 61.5s23 61.5 23 101.5c0 42 -8 76 -24 102c-14.667 25.333 -34.167 44.666 -58.5 57.999s-51.5 20 -81.5 20
c-27.333 0 -53.666 -6 -78.999 -18c-26 -13.333 -46.667 -33.666 -62 -60.999s-23 -61 -23 -101c0 -42.667 8 -77 24 -103c14.667 -26 34.167 -45.667 58.5 -59s51.5 -20 81.5 -20c27.333 0 53.666 6.33301 78.999 19z" />
    <glyph glyph-name="uni006F_uni0358_uni0301.liga" unicode="o&#x358;&#x301;" horiz-adv-x="608" 
d="M284 566.5c-5.33301 5 -8 11.834 -8 20.501c0 5.33301 2.33301 12 7 20l51 89c6.66699 13.333 18 20 34 20c10.667 0 19.667 -3.5 27 -10.5s11 -16.167 11 -27.5c0 -10.667 -3.33301 -19.334 -10 -26.001l-69 -82c-6 -7.33301 -13.667 -11 -23 -11
c-8 0 -14.667 2.5 -20 7.5zM524.5 499.501c-10.333 10.333 -15.5 22.5 -15.5 36.5s5.16699 26.167 15.5 36.5s22.5 15.5 36.5 15.5s26.167 -5.16699 36.5 -15.5s15.5 -22.5 15.5 -36.5s-5.16699 -26.167 -15.5 -36.5s-22.5 -15.5 -36.5 -15.5s-26.167 5.16699 -36.5 15.5z
M169 22.001c-38.667 22.667 -68.667 54.333 -90 95s-32 86.667 -32 138c0 52 10.667 98.333 32 139s51.5 72 90.5 94s83.833 33 134.5 33s95.334 -11 134.001 -33c39.333 -22.667 69.666 -54.167 90.999 -94.5s32 -86.5 32 -138.5s-10.667 -98 -32 -138
c-22 -41.333 -52.5 -73 -91.5 -95s-83.5 -33 -133.5 -33c-51.333 0 -96.333 11 -135 33zM383 93c26 13.333 46.667 33.833 62 61.5s23 61.5 23 101.5c0 42 -8 76 -24 102c-14.667 25.333 -34.167 44.666 -58.5 57.999s-51.5 20 -81.5 20c-27.333 0 -53.666 -6 -78.999 -18
c-26 -13.333 -46.667 -33.666 -62 -60.999s-23 -61 -23 -101c0 -42.667 8 -77 24 -103c14.667 -26 34.167 -45.667 58.5 -59s51.5 -20 81.5 -20c27.333 0 53.666 6.33301 78.999 19z" />
    <glyph glyph-name="uni006F_uni0358_uni030B.liga" unicode="o&#x358;&#x30b;" horiz-adv-x="608" 
d="M213 576c-5.33301 4.66699 -8 10.999 -8 18.999c0 4 0.333008 6.66699 1 8l27 90c2.66699 10 7.66699 17.833 15 23.5s15.333 8.5 24 8.5c10 0 18.5 -3.16699 25.5 -9.5s10.5 -14.5 10.5 -24.5c0 -7.33301 -2.33301 -15.666 -7 -24.999l-41 -79
c-6.66699 -12 -15.667 -18 -27 -18c-8 0 -14.667 2.33301 -20 7zM329 575.999c-5.33301 4.66699 -8 10.999 -8 18.999c0 4 0.333008 6.66699 1 8l27 90c2.66699 10 7.66699 17.833 15 23.5s15.333 8.5 24 8.5c10 0 18.5 -3.16699 25.5 -9.5s10.5 -14.5 10.5 -24.5
c0 -7.33301 -2.33301 -15.666 -7 -24.999l-41 -79c-6.66699 -12 -15.667 -18 -27 -18c-8 0 -14.667 2.33301 -20 7zM524.5 499.498c-10.333 10.333 -15.5 22.5 -15.5 36.5s5.16699 26.167 15.5 36.5s22.5 15.5 36.5 15.5s26.167 -5.16699 36.5 -15.5s15.5 -22.5 15.5 -36.5
s-5.16699 -26.167 -15.5 -36.5s-22.5 -15.5 -36.5 -15.5s-26.167 5.16699 -36.5 15.5zM169 21.998c-38.667 22.667 -68.667 54.333 -90 95s-32 86.667 -32 138c0 52 10.667 98.333 32 139s51.5 72 90.5 94s83.833 33 134.5 33s95.334 -11 134.001 -33
c39.333 -22.667 69.666 -54.167 90.999 -94.5s32 -86.5 32 -138.5s-10.667 -98 -32 -138c-22 -41.333 -52.5 -73 -91.5 -95s-83.5 -33 -133.5 -33c-51.333 0 -96.333 11 -135 33zM383 92.9971c26 13.333 46.667 33.833 62 61.5s23 61.5 23 101.5c0 42 -8 76 -24 102
c-14.667 25.333 -34.167 44.666 -58.5 57.999s-51.5 20 -81.5 20c-27.333 0 -53.666 -6 -78.999 -18c-26 -13.333 -46.667 -33.666 -62 -60.999s-23 -61 -23 -101c0 -42.667 8 -77 24 -103c14.667 -26 34.167 -45.667 58.5 -59s51.5 -20 81.5 -20
c27.333 0 53.666 6.33301 78.999 19z" />
    <glyph glyph-name="uni006F_uni0358_uni0302.liga" unicode="o&#x358;&#x302;" horiz-adv-x="608" 
d="M177.5 578.5c-6.33301 6.33301 -9.50293 13.166 -9.50293 20.499s2.66699 14.333 8 21l68 70c12.667 13.333 26.334 20 41.001 20h38c14.667 0 28.334 -6.66699 41.001 -20l68 -70c5.33301 -6.66699 8 -13.667 8 -21s-3.16699 -14.166 -9.5 -20.499
s-13.5 -9.5 -21.5 -9.5c-7.33301 0 -13.666 2.33301 -18.999 7l-78 66c-2 2.66699 -4.66699 4 -8 4c-2.66699 0 -5.33398 -1.33301 -8.00098 -4l-78 -66c-5.33301 -4.66699 -11.666 -7 -18.999 -7c-8 0 -15.167 3.16699 -21.5 9.5zM524.497 499.5
c-10.333 10.333 -15.5 22.5 -15.5 36.5s5.16699 26.167 15.5 36.5s22.5 15.5 36.5 15.5s26.167 -5.16699 36.5 -15.5s15.5 -22.5 15.5 -36.5s-5.16699 -26.167 -15.5 -36.5s-22.5 -15.5 -36.5 -15.5s-26.167 5.16699 -36.5 15.5zM168.997 22
c-38.667 22.667 -68.667 54.333 -90 95s-32 86.667 -32 138c0 52 10.667 98.333 32 139s51.5 72 90.5 94s83.833 33 134.5 33s95.334 -11 134.001 -33c39.333 -22.667 69.666 -54.167 90.999 -94.5s32 -86.5 32 -138.5s-10.667 -98 -32 -138
c-22 -41.333 -52.5 -73 -91.5 -95s-83.5 -33 -133.5 -33c-51.333 0 -96.333 11 -135 33zM382.997 92.999c26 13.333 46.667 33.833 62 61.5s23 61.5 23 101.5c0 42 -8 76 -24 102c-14.667 25.333 -34.167 44.666 -58.5 57.999s-51.5 20 -81.5 20
c-27.333 0 -53.666 -6 -78.999 -18c-26 -13.333 -46.667 -33.666 -62 -60.999s-23 -61 -23 -101c0 -42.667 8 -77 24 -103c14.667 -26 34.167 -45.667 58.5 -59s51.5 -20 81.5 -20c27.333 0 53.666 6.33301 78.999 19z" />
    <glyph glyph-name="uni006F_uni0358_uni030C.liga" unicode="o&#x358;&#x30c;" horiz-adv-x="608" 
d="M244 589l-67.9971 70c-5.33301 6.66699 -8 13.667 -8 21s3.16699 14.166 9.5 20.499s13.5 9.5 21.5 9.5c7.33301 0 13.666 -2.33301 18.999 -7l78 -66c4 -2.66699 6.66699 -4 8 -4c2.66699 0 5.33398 1.33301 8.00098 4l78 66c5.33301 4.66699 11.666 7 18.999 7
c8 0 15.167 -3.16699 21.5 -9.5s9.5 -13.166 9.5 -20.499s-2.66699 -14.333 -8 -21l-68 -70c-12.667 -13.333 -26.334 -20 -41.001 -20h-38c-14.667 0 -28.334 6.66699 -41.001 20zM524.503 499.5c-10.333 10.333 -15.5 22.5 -15.5 36.5s5.16699 26.167 15.5 36.5
s22.5 15.5 36.5 15.5s26.167 -5.16699 36.5 -15.5s15.5 -22.5 15.5 -36.5s-5.16699 -26.167 -15.5 -36.5s-22.5 -15.5 -36.5 -15.5s-26.167 5.16699 -36.5 15.5zM169.003 22c-38.667 22.667 -68.667 54.333 -90 95s-32 86.667 -32 138c0 52 10.667 98.333 32 139
s51.5 72 90.5 94s83.833 33 134.5 33s95.334 -11 134.001 -33c39.333 -22.667 69.666 -54.167 90.999 -94.5s32 -86.5 32 -138.5s-10.667 -98 -32 -138c-22 -41.333 -52.5 -73 -91.5 -95s-83.5 -33 -133.5 -33c-51.333 0 -96.333 11 -135 33zM383.003 92.999
c26 13.333 46.667 33.833 62 61.5s23 61.5 23 101.5c0 42 -8 76 -24 102c-14.667 25.333 -34.167 44.666 -58.5 57.999s-51.5 20 -81.5 20c-27.333 0 -53.666 -6 -78.999 -18c-26 -13.333 -46.667 -33.666 -62 -60.999s-23 -61 -23 -101c0 -42.667 8 -77 24 -103
c14.667 -26 34.167 -45.667 58.5 -59s51.5 -20 81.5 -20c27.333 0 53.666 6.33301 78.999 19z" />
    <glyph glyph-name="uni006F_uni0358_uni0306.liga" unicode="o&#x358;&#x306;" horiz-adv-x="608" 
d="M218 580.5c-25.333 14.333 -43.6641 34.5 -54.9971 60.5c-2 4 -3 8.66699 -3 14c0 8.66699 3 16.167 9 22.5s13.667 9.5 23 9.5c13.333 0 23 -6.66699 29 -20c7.33301 -15.333 18.166 -27.166 32.499 -35.499s31.166 -12.5 50.499 -12.5s36.166 4.16699 50.499 12.5
s25.166 20.166 32.499 35.499c6 13.333 15.667 20 29 20c9.33301 0 17 -3.16699 23 -9.5s9 -13.833 9 -22.5c0 -5.33301 -1 -10 -3 -14c-11.333 -26 -29.666 -46.167 -54.999 -60.5s-54 -21.5 -86 -21.5s-60.667 7.16699 -86 21.5zM524.502 499.5
c-10.333 10.333 -15.5 22.5 -15.5 36.5s5.16699 26.167 15.5 36.5s22.5 15.5 36.5 15.5s26.167 -5.16699 36.5 -15.5s15.5 -22.5 15.5 -36.5s-5.16699 -26.167 -15.5 -36.5s-22.5 -15.5 -36.5 -15.5s-26.167 5.16699 -36.5 15.5zM169.002 22
c-38.667 22.667 -68.667 54.333 -90 95s-32 86.667 -32 138c0 52 10.667 98.333 32 139s51.5 72 90.5 94s83.833 33 134.5 33s95.334 -11 134.001 -33c39.333 -22.667 69.666 -54.167 90.999 -94.5s32 -86.5 32 -138.5s-10.667 -98 -32 -138
c-22 -41.333 -52.5 -73 -91.5 -95s-83.5 -33 -133.5 -33c-51.333 0 -96.333 11 -135 33zM383.002 92.999c26 13.333 46.667 33.833 62 61.5s23 61.5 23 101.5c0 42 -8 76 -24 102c-14.667 25.333 -34.167 44.666 -58.5 57.999s-51.5 20 -81.5 20
c-27.333 0 -53.666 -6 -78.999 -18c-26 -13.333 -46.667 -33.666 -62 -60.999s-23 -61 -23 -101c0 -42.667 8 -77 24 -103c14.667 -26 34.167 -45.667 58.5 -59s51.5 -20 81.5 -20c27.333 0 53.666 6.33301 78.999 19z" />
    <glyph glyph-name="uni006F_uni0358_uni0304.liga" unicode="o&#x358;&#x304;" horiz-adv-x="608" 
d="M165 598c-6 6 -9 13.333 -9 22s3 16 9 22s13.333 9 22 9h234c8.66699 0 16 -3 22 -9s9 -13.333 9 -22s-3 -16 -9 -22s-13.333 -9 -22 -9h-234c-8.66699 0 -16 3 -22 9zM524.5 499.5c-10.333 10.333 -15.5 22.5 -15.5 36.5s5.16699 26.167 15.5 36.5s22.5 15.5 36.5 15.5
s26.167 -5.16699 36.5 -15.5s15.5 -22.5 15.5 -36.5s-5.16699 -26.167 -15.5 -36.5s-22.5 -15.5 -36.5 -15.5s-26.167 5.16699 -36.5 15.5zM169 22c-38.667 22.667 -68.667 54.333 -90 95s-32 86.667 -32 138c0 52 10.667 98.333 32 139s51.5 72 90.5 94s83.833 33 134.5 33
s95.334 -11 134.001 -33c39.333 -22.667 69.666 -54.167 90.999 -94.5s32 -86.5 32 -138.5s-10.667 -98 -32 -138c-22 -41.333 -52.5 -73 -91.5 -95s-83.5 -33 -133.5 -33c-51.333 0 -96.333 11 -135 33zM383 92.999c26 13.333 46.667 33.833 62 61.5s23 61.5 23 101.5
c0 42 -8 76 -24 102c-14.667 25.333 -34.167 44.666 -58.5 57.999s-51.5 20 -81.5 20c-27.333 0 -53.666 -6 -78.999 -18c-26 -13.333 -46.667 -33.666 -62 -60.999s-23 -61 -23 -101c0 -42.667 8 -77 24 -103c14.667 -26 34.167 -45.667 58.5 -59s51.5 -20 81.5 -20
c27.333 0 53.666 6.33301 78.999 19z" />
    <glyph glyph-name="uni006F_uni0358_uni030D.liga" unicode="o&#x358;&#x30d;" horiz-adv-x="608" 
d="M276.5 750c6.33301 6.66699 15.5 10 27.5 10c11.333 0 20.333 -3.16699 27 -9.5s10 -15.5 10 -27.5v-117c0 -11.333 -3.16699 -20.333 -9.5 -27s-15.5 -10 -27.5 -10c-11.333 0 -20.333 3.16699 -27 9.5s-10 15.5 -10 27.5v117c0 11.333 3.16699 20.333 9.5 27z
M524.5 499.5c-10.333 10.333 -15.5 22.5 -15.5 36.5s5.16699 26.167 15.5 36.5s22.5 15.5 36.5 15.5s26.167 -5.16699 36.5 -15.5s15.5 -22.5 15.5 -36.5s-5.16699 -26.167 -15.5 -36.5s-22.5 -15.5 -36.5 -15.5s-26.167 5.16699 -36.5 15.5zM169 22
c-38.667 22.667 -68.667 54.333 -90 95s-32 86.667 -32 138c0 52 10.667 98.333 32 139s51.5 72 90.5 94s83.833 33 134.5 33s95.334 -11 134.001 -33c39.333 -22.667 69.666 -54.167 90.999 -94.5s32 -86.5 32 -138.5s-10.667 -98 -32 -138
c-22 -41.333 -52.5 -73 -91.5 -95s-83.5 -33 -133.5 -33c-51.333 0 -96.333 11 -135 33zM383 92.999c26 13.333 46.667 33.833 62 61.5s23 61.5 23 101.5c0 42 -8 76 -24 102c-14.667 25.333 -34.167 44.666 -58.5 57.999s-51.5 20 -81.5 20
c-27.333 0 -53.666 -6 -78.999 -18c-26 -13.333 -46.667 -33.666 -62 -60.999s-23 -61 -23 -101c0 -42.667 8 -77 24 -103c14.667 -26 34.167 -45.667 58.5 -59s51.5 -20 81.5 -20c27.333 0 53.666 6.33301 78.999 19z" />
    <glyph glyph-name="uni0075_uni030B.liga" unicode="u&#x30b;" horiz-adv-x="609" 
d="M211 556c-5.33301 4.66699 -8 10.999 -8 18.999c0 4 0.333008 6.66699 1 8l27 90c2.66699 10 7.66699 17.833 15 23.5s15.333 8.5 24 8.5c10 0 18.5 -3.16699 25.5 -9.5s10.5 -14.5 10.5 -24.5c0 -7.33301 -2.33301 -15.666 -7 -24.999l-41 -79
c-6.66699 -12 -15.667 -18 -27 -18c-8 0 -14.667 2.33301 -20 7zM327 555.999c-5.33301 4.66699 -8 10.999 -8 18.999c0 4 0.333008 6.66699 1 8l27 90c2.66699 10 7.66699 17.833 15 23.5s15.333 8.5 24 8.5c10 0 18.5 -3.16699 25.5 -9.5s10.5 -14.5 10.5 -24.5
c0 -7.33301 -2.33301 -15.666 -7 -24.999l-41 -79c-6.66699 -12 -15.667 -18 -27 -18c-8 0 -14.667 2.33301 -20 7zM157 14.998c-26.667 17.333 -47.335 40.999 -62.002 70.999s-22 63.333 -22 100v284c0 12.667 4.66699 23.5 14 32.5s20.333 13.5 33 13.5
s23.5 -4.5 32.5 -13.5s13.5 -19.833 13.5 -32.5v-274c0 -80.667 36.333 -121 109 -121c32 0 60.833 8 86.5 24s51.167 39.667 76.5 71v300c0 12.667 4.66699 23.5 14 32.5s20.333 13.5 33 13.5s23.5 -4.5 32.5 -13.5s13.5 -19.833 13.5 -32.5v-429
c0 -12.667 -4.5 -23.667 -13.5 -33s-19.833 -14 -32.5 -14s-23.667 4.66699 -33 14s-14 20.333 -14 33v38c-27.333 -29.333 -55.666 -51.666 -84.999 -66.999s-62.666 -23 -99.999 -23c-36 0 -68 8.66699 -96 26z" />
    <glyph glyph-name="u_tildecomb.liga" unicode="u&#x303;" horiz-adv-x="609" 
d="M155.5 577c-5 4.66699 -7.49902 10.3359 -7.49902 17.0029c0 23.333 8.33301 45.166 25 65.499s36.667 30.5 60 30.5c12.667 0 24.667 -1.83301 36 -5.5s26 -9.83398 44 -18.501c17.333 -8.66699 31.166 -14.667 41.499 -18s21.166 -5 32.499 -5
c17.333 0 29.333 8.66699 36 26c5.33301 14.667 14 22 26 22c6.66699 0 12.334 -2.16699 17.001 -6.5s7 -9.83301 7 -16.5c0 -24.667 -8.33301 -46.834 -25 -66.501s-36.667 -29.5 -60 -29.5c-12.667 0 -24.667 1.83301 -36 5.5s-26.666 10.167 -45.999 19.5
c-17.333 8.66699 -31 14.667 -41 18s-20.333 5 -31 5c-18.667 0 -31.334 -10.333 -38.001 -31c-4 -12.667 -12 -19 -24 -19c-6 0 -11.5 2.33301 -16.5 7zM157.001 15.002c-26.667 17.333 -47.335 40.999 -62.002 70.999s-22 63.333 -22 100v284
c0 12.667 4.66699 23.5 14 32.5s20.333 13.5 33 13.5s23.5 -4.5 32.5 -13.5s13.5 -19.833 13.5 -32.5v-274c0 -80.667 36.333 -121 109 -121c32 0 60.833 8 86.5 24s51.167 39.667 76.5 71v300c0 12.667 4.66699 23.5 14 32.5s20.333 13.5 33 13.5s23.5 -4.5 32.5 -13.5
s13.5 -19.833 13.5 -32.5v-429c0 -12.667 -4.5 -23.667 -13.5 -33s-19.833 -14 -32.5 -14s-23.667 4.66699 -33 14s-14 20.333 -14 33v38c-27.333 -29.333 -55.666 -51.666 -84.999 -66.999s-62.666 -23 -99.999 -23c-36 0 -68 8.66699 -96 26z" />
    <glyph glyph-name="uni0075_uni030D.liga" unicode="u&#x30d;" horiz-adv-x="609" 
d="M274.5 730c6.33301 6.66699 15.5 10 27.5 10c11.333 0 20.333 -3.16699 27 -9.5s10 -15.5 10 -27.5v-117c0 -11.333 -3.16699 -20.333 -9.5 -27s-15.5 -10 -27.5 -10c-11.333 0 -20.333 3.16699 -27 9.5s-10 15.5 -10 27.5v117c0 11.333 3.16699 20.333 9.5 27zM157 15
c-26.667 17.333 -47.335 40.999 -62.002 70.999s-22 63.333 -22 100v284c0 12.667 4.66699 23.5 14 32.5s20.333 13.5 33 13.5s23.5 -4.5 32.5 -13.5s13.5 -19.833 13.5 -32.5v-274c0 -80.667 36.333 -121 109 -121c32 0 60.833 8 86.5 24s51.167 39.667 76.5 71v300
c0 12.667 4.66699 23.5 14 32.5s20.333 13.5 33 13.5s23.5 -4.5 32.5 -13.5s13.5 -19.833 13.5 -32.5v-429c0 -12.667 -4.5 -23.667 -13.5 -33s-19.833 -14 -32.5 -14s-23.667 4.66699 -33 14s-14 20.333 -14 33v38c-27.333 -29.333 -55.666 -51.666 -84.999 -66.999
s-62.666 -23 -99.999 -23c-36 0 -68 8.66699 -96 26z" />
    <glyph glyph-name="f_f" unicode="ff" horiz-adv-x="774" 
d="M129.5 7.5c-9 9 -13.502 19.8311 -13.502 32.498v391h-58c-10.667 0 -20 4 -28 12s-12 17.333 -12 28c0 11.333 4 20.833 12 28.5s17.333 11.5 28 11.5h58v57c0 40.667 7.33301 73.667 22 99c13.333 24.667 31.5 43.167 54.5 55.5s47.833 18.5 74.5 18.5
c30 0 59 -6.66699 87 -20c16 -9.33301 24 -21.333 24 -36c0 -10 -3.83301 -19 -11.5 -27s-16.5 -12 -26.5 -12c-7.33301 0 -15 1 -23 3l-27 3c-29.333 0 -50.166 -6.66699 -62.499 -20s-18.5 -35.666 -18.5 -66.999v-54h301v57c0 40.667 7.33301 73.667 22 99
c13.333 24.667 31.5 43.167 54.5 55.5s47.833 18.5 74.5 18.5c30 0 59 -6.66699 87 -20c16 -9.33301 24 -21.333 24 -36c0 -10 -3.83301 -19 -11.5 -27s-16.5 -12 -26.5 -12c-7.33301 0 -15 1 -23 3l-27 3c-29.333 0 -50.166 -6.66699 -62.499 -20
s-18.5 -35.666 -18.5 -66.999v-54h124c11.333 0 20.833 -3.83301 28.5 -11.5s11.5 -17.167 11.5 -28.5c0 -10.667 -3.83301 -20 -11.5 -28s-17.167 -12 -28.5 -12h-124v-391c0 -12.667 -4.66699 -23.5 -14 -32.5s-20.333 -13.5 -33 -13.5s-23.5 4.5 -32.5 13.5
s-13.5 19.833 -13.5 32.5v391h-301v-391c0 -12.667 -4.66699 -23.5 -14 -32.5s-20.333 -13.5 -33 -13.5s-23.5 4.5 -32.5 13.5z" />
    <glyph glyph-name="f_f_i" unicode="ffi" horiz-adv-x="1031" 
d="M129.5 7.5c-9 9 -13.502 19.8311 -13.502 32.498v391h-58c-10.667 0 -20 4 -28 12s-12 17.333 -12 28c0 11.333 4 20.833 12 28.5s17.333 11.5 28 11.5h58v57c0 40.667 7.33301 73.667 22 99c13.333 24.667 31.5 43.167 54.5 55.5s47.833 18.5 74.5 18.5
c30 0 59 -6.66699 87 -20c16 -9.33301 24 -21.333 24 -36c0 -10 -3.83301 -19 -11.5 -27s-16.5 -12 -26.5 -12c-7.33301 0 -15 1 -23 3l-27 3c-29.333 0 -50.166 -6.66699 -62.499 -20s-18.5 -35.666 -18.5 -66.999v-54h301v57c0 40.667 7.33301 73.667 22 99
c13.333 24.667 31.5 43.167 54.5 55.5s47.833 18.5 74.5 18.5c30 0 59 -6.66699 87 -20c16 -9.33301 24 -21.333 24 -36c0 -10 -3.83301 -19 -11.5 -27s-16.5 -12 -26.5 -12c-7.33301 0 -15 1 -23 3l-27 3c-29.333 0 -50.166 -6.66699 -62.499 -20
s-18.5 -35.666 -18.5 -66.999v-54h303c13.333 0 24.5 -4.5 33.5 -13.5s13.5 -20.167 13.5 -33.5v-424c0 -12.667 -4.66699 -23.5 -14 -32.5s-20.333 -13.5 -33 -13.5s-23.5 4.5 -32.5 13.5s-13.5 19.833 -13.5 32.5v391h-257v-391c0 -12.667 -4.66699 -23.5 -14 -32.5
s-20.333 -13.5 -33 -13.5s-23.5 4.5 -32.5 13.5s-13.5 19.833 -13.5 32.5v391h-301v-391c0 -12.667 -4.66699 -23.5 -14 -32.5s-20.333 -13.5 -33 -13.5s-23.5 4.5 -32.5 13.5zM867.498 628.498c-10.333 10.333 -15.5 22.5 -15.5 36.5v4c0 14 5.16699 26.167 15.5 36.5
s22.5 15.5 36.5 15.5h6c14 0 26.167 -5.16699 36.5 -15.5s15.5 -22.5 15.5 -36.5v-4c0 -14 -5.16699 -26.167 -15.5 -36.5s-22.5 -15.5 -36.5 -15.5h-6c-14 0 -26.167 5.16699 -36.5 15.5z" />
    <glyph glyph-name="f_f_l" unicode="ffl" horiz-adv-x="1030" 
d="M129.5 7.5c-9 9 -13.502 19.8311 -13.502 32.498v391h-58c-10.667 0 -20 4 -28 12s-12 17.333 -12 28c0 11.333 4 20.833 12 28.5s17.333 11.5 28 11.5h58v57c0 40.667 7.33301 73.667 22 99c13.333 24.667 31.5 43.167 54.5 55.5s47.833 18.5 74.5 18.5
c30 0 59 -6.66699 87 -20c16 -9.33301 24 -21.333 24 -36c0 -10 -3.83301 -19 -11.5 -27s-16.5 -12 -26.5 -12c-7.33301 0 -15 1 -23 3l-27 3c-29.333 0 -50.166 -6.66699 -62.499 -20s-18.5 -35.666 -18.5 -66.999v-54h301v57c0 40.667 7.33301 73.667 22 99
c13.333 24.667 31.5 43.167 54.5 55.5s47.833 18.5 74.5 18.5c30 0 59 -6.66699 87 -20c16 -9.33301 24 -21.333 24 -36c0 -10 -3.83301 -19 -11.5 -27s-16.5 -12 -26.5 -12c-7.33301 0 -15 1 -23 3l-27 3c-29.333 0 -50.166 -6.66699 -62.499 -20
s-18.5 -35.666 -18.5 -66.999v-54h124c11.333 0 20.833 -3.83301 28.5 -11.5s11.5 -17.167 11.5 -28.5c0 -10.667 -3.83301 -20 -11.5 -28s-17.167 -12 -28.5 -12h-124v-391c0 -12.667 -4.66699 -23.5 -14 -32.5s-20.333 -13.5 -33 -13.5s-23.5 4.5 -32.5 13.5
s-13.5 19.833 -13.5 32.5v391h-301v-391c0 -12.667 -4.66699 -23.5 -14 -32.5s-20.333 -13.5 -33 -13.5s-23.5 4.5 -32.5 13.5zM872.498 7.49805c-9 9 -13.5 19.833 -13.5 32.5v649c0 12.667 4.5 23.667 13.5 33s19.833 14 32.5 14c13.333 0 24.5 -4.5 33.5 -13.5
s13.5 -20.167 13.5 -33.5v-649c0 -12.667 -4.66699 -23.5 -14 -32.5s-20.333 -13.5 -33 -13.5s-23.5 4.5 -32.5 13.5z" />
    <glyph glyph-name="_z_j_b_y.liga" unicode="&#x518d;&#x200d;&#x898b;" 
d="M956.5 109.5c7.66699 -9 11.4941 -21.8301 11.4941 -38.4971c0 -70.667 -14.667 -114 -44 -130c-20.667 -11.333 -69.667 -17.666 -147 -18.999h-34c-34 0 -68.667 1 -104 3c-22 1.33301 -39 8.33301 -51 21s-18 28.667 -18 48v126h-148
c-10 -72.667 -46.667 -126.334 -110 -161.001c-64 -34.667 -136 -52 -216 -52c-27.333 0 -41 13 -41 39c0 24 16.667 37 50 39c142.667 11.333 219.334 56.333 230.001 135h-86c-33.333 -2.66699 -57.666 3.66602 -72.999 18.999s-21.666 39.666 -18.999 72.999v57h-56
c-25.333 0 -38 12.333 -38 37c0 24 12.667 36 38 36h55v202c-5.33301 66 25.667 99 93 99h217v56h-351c-30 0 -45 12.333 -45 37s15 37 45 37h794c30.667 0 46 -12.333 46 -37s-15.333 -37 -46 -37h-363v-56h222c70 2.66699 102.333 -30.333 97 -99v-202h49
c27.333 0 41 -12 41 -36c0 -24.667 -13.667 -37 -41 -37h-52v-57c2.66699 -33.333 -3.66602 -57.666 -18.999 -72.999s-39.666 -21.666 -72.999 -18.999h-120v-91c0 -6.66699 2 -12.334 6 -17.001s10.667 -8.33398 20 -11.001c8.66699 -2.66699 30 -4 64 -4h41
c38 0 63.667 3.66699 77 11c14 5.33301 21 22.666 21 51.999v22c0 12 3.66699 21.833 11 29.5s18.333 11.5 33 11.5s25.834 -4.5 33.501 -13.5zM236.994 487.003h229v85h-190c-24.667 -0.666992 -37.667 -14 -39 -40v-45zM545.994 572.003v-85h237v45
c-1.33301 26 -14.333 39.333 -39 40h-198zM236.994 416.003v-74h229v74h-229zM545.994 342.003h237v74h-237v-74zM750.994 191.003c10 0 17.501 2.66699 22.501 8s7.5 13 7.5 23v47h-544v-47c0 -9.33301 2.66699 -16.833 8 -22.5s12.666 -8.5 21.999 -8.5h484z" />
    <glyph glyph-name=".notdef" horiz-adv-x="600" 
 />
    <glyph glyph-name="space" unicode=" " horiz-adv-x="300" 
 />
    <glyph glyph-name="exclam" unicode="!" horiz-adv-x="281" 
d="M116.5 200c-6.33301 5.33301 -9.83301 12.666 -10.5 21.999l-18 330v99c0 14.667 5.16699 27.167 15.5 37.5s22.833 15.5 37.5 15.5s27 -5.16699 37 -15.5s15 -22.833 15 -37.5v-99l-18 -330c-0.666992 -9.33301 -4 -16.666 -10 -21.999s-14 -8 -24 -8
s-18.167 2.66699 -24.5 8zM99 13c-12 12 -18 26.333 -18 43c0 16 6 30 18 42s26 18 42 18c16.667 0 31 -6 43 -18s18 -26 18 -42c0 -16.667 -6 -31 -18 -43s-26.333 -18 -43 -18c-16 0 -30 6 -42 18z" />
    <glyph glyph-name="quotedbl" unicode="&#x22;" horiz-adv-x="413" 
d="M81 574l-21.001 145.999l-1 9c0 35.333 18.333 53 55 53c15.333 0 29 -6 41 -18c10.667 -11.333 15.334 -22.666 14.001 -33.999l-2 -10l-21 -146c-3.33301 -22 -14 -33 -32 -33c-18.667 0 -29.667 11 -33 33zM266.999 573.999l-22 146l-1 10c0 34.667 18.333 52 55 52
s55 -18 55 -54l-1 -8l-21 -146c-3.33301 -22 -14.333 -33 -33 -33c-18 0 -28.667 11 -32 33z" />
    <glyph glyph-name="numbersign" unicode="#" horiz-adv-x="612" 
d="M133.5 4.5c-7 7 -10.502 15.5 -10.502 25.5l24 151h-76c-9.33301 0 -17.666 3.66699 -24.999 11s-11 15.666 -11 24.999s3.66699 17.666 11 24.999s15.666 11 24.999 11h87l24 150h-76c-9.33301 0 -17.666 3.66699 -24.999 11s-11 15.666 -11 24.999
s3.66699 17.666 11 24.999s15.666 11 24.999 11h87l25 157c1.33301 8.66699 5.33301 15.667 12 21s14.667 8 24 8c10.667 0 19.334 -3.5 26.001 -10.5s10 -15.5 10 -25.5c0 -6 -8 -56 -24 -150h125l25 157c1.33301 8.66699 5.33301 15.667 12 21s14.667 8 24 8
c10.667 0 19.334 -3.5 26.001 -10.5s10 -15.5 10 -25.5c0 -6 -8 -56 -24 -150h76c9.33301 0 17.666 -3.66699 24.999 -11s11 -15.666 11 -24.999s-3.66699 -17.666 -11 -24.999s-15.666 -11 -24.999 -11h-87l-24 -150h76c9.33301 0 17.666 -3.66699 24.999 -11
s11 -15.666 11 -24.999s-3.66699 -17.666 -11 -24.999s-15.666 -11 -24.999 -11h-87l-25 -157c-1.33301 -8 -5.5 -15 -12.5 -21s-14.833 -9 -23.5 -9c-10 0 -18.5 3.5 -25.5 10.5s-10.5 15.5 -10.5 25.5l24 151h-125l-25 -157c-1.33301 -8 -5.5 -15 -12.5 -21
s-14.833 -9 -23.5 -9c-10 0 -18.5 3.5 -25.5 10.5zM379.998 403h-125l-24 -150h125z" />
    <glyph glyph-name="dollar" unicode="$" horiz-adv-x="616" 
d="M546 88c-19.333 -28.667 -46.666 -51.5029 -81.999 -68.5029s-75.666 -26.833 -120.999 -29.5v-70c0 -8.66699 -3 -16 -9 -22s-13.667 -9 -23 -9c-8.66699 0 -16 2.83301 -22 8.5s-9 13.167 -9 22.5v70c-70.667 4.66699 -137.667 20.334 -201 47.001
c-8 3.33301 -14.833 9 -20.5 17s-8.5 16.333 -8.5 25c0 12 4 22.167 12 30.5s18 12.5 30 12.5c7.33301 0 13.666 -1.33301 18.999 -4c53.333 -24 109.666 -37.333 168.999 -40v228c-46 12 -83.667 25 -113 39c-36 16 -63.333 37.5 -82 64.5s-28 58.167 -28 93.5
c0 34.667 8.66699 67 26 97c18 30.667 44 55.334 78 74.001s73.667 30 119 34v69c0 8.66699 3 16.167 9 22.5s13.333 9.5 22 9.5s16.167 -3.16699 22.5 -9.5s9.5 -13.833 9.5 -22.5v-68c65.333 -3.33301 123 -14.333 173 -33c19.333 -7.33301 29 -21 29 -41
c0 -10.667 -4 -20.5 -12 -29.5s-17.667 -13.5 -29 -13.5c-4.66699 0 -10 1.33301 -16 4c-44 16 -92.333 25 -145 27v-236c45.333 -10.667 85 -23 119 -37c34.667 -14.667 62 -35.5 82 -62.5s30 -61.167 30 -102.5c0 -35.333 -9.33301 -67.666 -28 -96.999zM181 443.997
c20.667 -16 53.667 -30 99 -42v218c-41.333 -6 -73.333 -18.667 -96 -38s-34 -43.333 -34 -72c0 -28 10.333 -50 31 -66zM482 190.997c0 24 -10.833 43.332 -32.5 57.999s-57.167 28.667 -106.5 42v-213c92.667 6.66699 139 44.334 139 113.001z" />
    <glyph glyph-name="percent" unicode="%" horiz-adv-x="814" 
d="M85 406c-28.667 33.333 -43 76.666 -43 129.999s14.333 96.666 43 129.999s68.334 50 119.001 50s90.334 -16.667 119.001 -50s43 -76.666 43 -129.999s-14.333 -96.666 -43 -129.999s-68.334 -50 -119.001 -50s-90.334 16.667 -119.001 50zM180.5 -1
c-7 6.66699 -10.501 14.667 -10.501 24c0 6.66699 1.66699 12.667 5 18l407 651c7.33301 10.667 17 16 29 16c10.667 0 19.167 -2.83301 25.5 -8.5s9.5 -13.167 9.5 -22.5c0 -8 -2.33301 -15.667 -7 -23l-404 -647c-7.33301 -12 -17.666 -18 -30.999 -18
c-8.66699 0 -16.5 3.33301 -23.5 10zM269.499 453.5c16.333 20.333 24.5 47.833 24.5 82.5s-8.16699 62.167 -24.5 82.5s-38.166 30.5 -65.499 30.5s-49.166 -10.167 -65.499 -30.5s-24.5 -47.833 -24.5 -82.5s8.16699 -62.167 24.5 -82.5s38.166 -30.5 65.499 -30.5
s49.166 10.167 65.499 30.5zM490.999 31c-28.667 33.333 -43 76.666 -43 129.999s14.333 96.666 43 129.999s68.334 50 119.001 50s90.334 -16.667 119.001 -50s43 -76.666 43 -129.999s-14.333 -96.666 -43 -129.999s-68.334 -50 -119.001 -50s-90.334 16.667 -119.001 50z
M675.499 78.5c16.333 20.333 24.5 47.833 24.5 82.5s-8.16699 62.167 -24.5 82.5s-38.166 30.5 -65.499 30.5s-49.166 -10.167 -65.499 -30.5s-24.5 -47.833 -24.5 -82.5s8.16699 -62.167 24.5 -82.5s38.166 -30.5 65.499 -30.5s49.166 10.167 65.499 30.5z" />
    <glyph glyph-name="ampersand" unicode="&#x26;" horiz-adv-x="732" 
d="M177 19c-36 18.667 -62.834 43.5 -80.501 74.5s-26.5 65.167 -26.5 102.5c0 42 10.833 79.333 32.5 112s48.5 59.334 80.5 80.001c-21.333 25.333 -36.833 49 -46.5 71s-14.5 46.667 -14.5 74c0 31.333 7.66699 60.666 23 87.999s37.333 48.833 66 64.5
s61.667 23.5 99 23.5c44 0 88.667 -14.667 134 -44c4.66699 -2.66699 8.83398 -7 12.501 -13s5.5 -12 5.5 -18c0 -10 -3.5 -18.5 -10.5 -25.5s-15.5 -10.5 -25.5 -10.5c-4 0 -10 1.66699 -18 5c-32.667 17.333 -64 26 -94 26c-32.667 0 -58.5 -8.83301 -77.5 -26.5
s-28.5 -39.167 -28.5 -64.5c0 -20 3.33301 -37 10 -51c6 -13.333 15 -26.833 27 -40.5s33 -34.5 63 -62.5l208 -196c6 8.66699 16.667 28.334 32 59.001c3.33301 8 8.66602 14.333 15.999 19s15.333 7 24 7c12 0 22.167 -4 30.5 -12s12.5 -18 12.5 -30
c0 -5.33301 -1.66699 -12 -5 -20c-12.667 -28 -28.667 -55.333 -48 -82l67 -63c6 -5.33301 10.167 -10.333 12.5 -15s3.5 -10.667 3.5 -18c0 -12 -4 -22 -12 -30s-18 -12 -30 -12s-22.667 4 -32 12l-66 64c-29.333 -24.667 -61.5 -43.834 -96.5 -57.501
s-71.167 -20.5 -108.5 -20.5c-55.333 0 -101.666 10 -138.999 30zM459.999 123l-221 208c-24 -15.333 -43.5 -34.833 -58.5 -58.5s-22.5 -50.167 -22.5 -79.5c0 -23.333 6.5 -44.5 19.5 -63.5s31 -34 54 -45s48.5 -16.5 76.5 -16.5c56 0 106.667 18.333 152 55z" />
    <glyph glyph-name="quotesingle" unicode="'" horiz-adv-x="222" 
d="M91 498c-5.33301 4.66699 -8.66797 11 -10.001 19c-14.667 73.333 -22 133.333 -22 180c0 14 5.16699 26 15.5 36s22.5 15 36.5 15s26.167 -5 36.5 -15s15.5 -22 15.5 -36c0 -46.667 -7.33301 -106.667 -22 -180c-1.33301 -8 -4.66602 -14.333 -9.99902 -19
s-12 -7 -20 -7s-14.667 2.33301 -20 7z" />
    <glyph glyph-name="parenleft" unicode="(" horiz-adv-x="312" 
d="M206.5 -151c-4.33301 2.66699 -9.5 7.33008 -15.5 13.9971c-45.333 54.667 -80.166 120.334 -104.499 197.001s-36.5 159 -36.5 247s12.167 170.333 36.5 247s59.166 142.334 104.499 197.001c6 6.66699 11.167 11.334 15.5 14.001s10.5 4 18.5 4
c10.667 0 20.167 -3.83301 28.5 -11.5s12.5 -17.167 12.5 -28.5c0 -6 -2 -13.667 -6 -23c-37.333 -61.333 -66.166 -125.833 -86.499 -193.5s-30.5 -136.167 -30.5 -205.5s10.167 -137.833 30.5 -205.5s49.166 -132.167 86.499 -193.5c4 -9.33301 6 -17 6 -23
c0 -11.333 -4.16699 -20.833 -12.5 -28.5s-17.833 -11.5 -28.5 -11.5c-8 0 -14.167 1.33301 -18.5 4z" />
    <glyph glyph-name="parenright" unicode=")" horiz-adv-x="312" 
d="M59.5 -143.5c-8.33301 7.66699 -12.5 17.1709 -12.5 28.5039c0 6 2 13.667 6 23c37.333 61.333 66.166 125.833 86.499 193.5s30.5 136.167 30.5 205.5s-10.167 137.833 -30.5 205.5s-49.166 132.167 -86.499 193.5c-4 9.33301 -6 17 -6 23
c0 11.333 4.16699 20.833 12.5 28.5s17.833 11.5 28.5 11.5c8 0 14.167 -1.33301 18.5 -4s9.5 -7.33398 15.5 -14.001c45.333 -54.667 80.166 -120.334 104.499 -197.001s36.5 -159 36.5 -247s-12.167 -170.333 -36.5 -247s-59.166 -142.334 -104.499 -197.001
c-6 -6.66699 -11.167 -11.334 -15.5 -14.001s-10.5 -4 -18.5 -4c-10.667 0 -20.167 3.83301 -28.5 11.5z" />
    <glyph glyph-name="asterisk" unicode="*" horiz-adv-x="417" 
d="M186.5 392c-6.33301 6 -9.5 12.999 -9.5 20.999c0 4.66699 5.33301 39.334 16 104.001l-21 -17c-39.333 -32 -60 -48.333 -62 -49c-4 -2 -8.33301 -3 -13 -3c-10.667 0 -20 5 -28 15c-2.66699 5.33301 -4 11 -4 17c0 11.333 5 19.666 15 24.999l97 38l-97 38
c-10 6 -15 14.667 -15 26c0 6 1.33301 11.667 4 17c6.66699 10 15.667 15 27 15c4 0 8.66699 -1.33301 14 -4c2 -0.666992 22.667 -17 62 -49l21 -17c-10.667 64.667 -16 99.334 -16 104.001c0 8 3.16699 15 9.5 21s13.5 9 21.5 9s15.167 -3 21.5 -9s9.5 -13 9.5 -21
c0 -4.66699 -5.33301 -39.334 -16 -104.001l21 17l61 49c3.33301 2.66699 8.33301 4 15 4c11.333 0 20.333 -5 27 -15c2.66699 -5.33301 4 -10.666 4 -15.999c0 -11.333 -5 -20.333 -15 -27l-97 -38l97 -38c10 -6 15 -14.667 15 -26c0 -5.33301 -1.33301 -10.666 -4 -15.999
c-8 -10 -17.333 -15 -28 -15c-4.66699 0 -9 1 -13 3c-2 0.666992 -22.667 17 -62 49l-21 17c10.667 -64.667 16 -99.334 16 -104.001c0 -8 -3.16699 -15 -9.5 -21s-13.5 -9 -21.5 -9s-15.167 3 -21.5 9z" />
    <glyph glyph-name="plus" unicode="+" horiz-adv-x="562" 
d="M253 115c-8 8 -12 17.333 -12 28v163h-163c-10.667 0 -19.834 3.83301 -27.501 11.5s-11.5 16.834 -11.5 27.501c0 11.333 3.83301 20.833 11.5 28.5s16.834 11.5 27.501 11.5h163v163c0 11.333 4 20.833 12 28.5s17.333 11.5 28 11.5
c11.333 0 20.833 -3.83301 28.5 -11.5s11.5 -17.167 11.5 -28.5v-163h162c11.333 0 20.833 -3.83301 28.5 -11.5s11.5 -17.167 11.5 -28.5c0 -10.667 -3.83301 -19.834 -11.5 -27.501s-17.167 -11.5 -28.5 -11.5h-162v-163c0 -10.667 -3.83301 -20 -11.5 -28
s-17.167 -12 -28.5 -12c-10.667 0 -20 4 -28 12z" />
    <glyph glyph-name="comma" unicode="," horiz-adv-x="260" 
d="M71 -142.5c-6 6.33301 -9 13.502 -9 21.502c0 10.667 5 19.334 15 26.001c18 10.667 31 22.667 39 36s12 31.666 12 54.999h-3c-15.333 0 -28.666 5.66699 -39.999 17s-17 24.666 -17 39.999v6c0 15.333 5.66699 28.666 17 39.999s24.666 17 39.999 17h10
c14.667 0 27.167 -5.5 37.5 -16.5s16.833 -24.5 19.5 -40.5c1.33301 -6.66699 2 -16.667 2 -30c0 -12.667 -0.666992 -22.334 -2 -29.001c-5.33301 -36 -14 -65.667 -26 -89s-30.667 -42.666 -56 -57.999c-5.33301 -3.33301 -11.333 -5 -18 -5c-8 0 -15 3.16699 -21 9.5z
" />
    <glyph glyph-name="hyphen" unicode="-" horiz-adv-x="408" 
d="M80 251c-8 8 -11.999 17.666 -11.999 28.999c0 12 3.83301 22 11.5 30s17.5 12 29.5 12h189c11.333 0 21.166 -4.16699 29.499 -12.5s12.5 -18.166 12.5 -29.499c0 -12 -4 -21.833 -12 -29.5s-18 -11.5 -30 -11.5h-189c-11.333 0 -21 4 -29 12z" />
    <glyph glyph-name="period" unicode="." horiz-adv-x="260" 
d="M85 13c-11.333 11.333 -17 24.666 -17 39.999v6c0 15.333 5.66699 28.666 17 39.999s24.666 17 39.999 17h10c15.333 0 28.666 -5.66699 39.999 -17s17 -24.666 17 -39.999v-6c0 -15.333 -5.66699 -28.666 -17 -39.999s-24.666 -17 -39.999 -17h-10
c-15.333 0 -28.666 5.66699 -39.999 17z" />
    <glyph glyph-name="slash" unicode="/" horiz-adv-x="443" 
d="M59 -84c-8 8 -12 18 -12 30c0 4 1 9 3 15l265 775c2.66699 8.66699 7.5 15.667 14.5 21s15.5 8 25.5 8c12 0 22 -4 30 -12s12 -18 12 -30c0 -4 -1 -9 -3 -15l-265 -775c-2.66699 -8.66699 -7.5 -15.667 -14.5 -21s-15.5 -8 -25.5 -8c-12 0 -22 4 -30 12z" />
    <glyph glyph-name="zero" unicode="0" horiz-adv-x="628" 
d="M112.5 85c-47 64 -70.5 151.998 -70.5 263.998s23.5 200 70.5 264s114.167 96 201.5 96c86 0 152.833 -31.667 200.5 -95s71.5 -151.666 71.5 -264.999s-23.833 -201.666 -71.5 -264.999s-114.5 -95 -200.5 -95c-87.333 0 -154.5 32 -201.5 96zM446 146.498
c31.333 47.667 47 115.167 47 202.5c0 86.667 -15.667 153.834 -47 201.501s-75.333 71.5 -132 71.5s-100.667 -23.833 -132 -71.5s-47 -114.834 -47 -201.501c0 -87.333 15.667 -154.833 47 -202.5s75.333 -71.5 132 -71.5s100.667 23.833 132 71.5z" />
    <glyph glyph-name="one" unicode="1" horiz-adv-x="628" 
d="M146.5 11.5c-8.33301 8.33301 -12.498 18.499 -12.498 30.499s4.16699 22.333 12.5 31s18.5 13 30.5 13h118v489c0 4.66699 -1.16699 7.83398 -3.5 9.50098s-5.83301 1.16699 -10.5 -1.5l-87 -42c-8.66699 -4 -16.334 -6 -23.001 -6
c-12.667 0 -23.167 4.16699 -31.5 12.5s-12.5 18.833 -12.5 31.5c0 19.333 9 33.333 27 42l136 71c7.33301 4.66699 16.666 7 27.999 7h21c13.333 0 24.833 -4.83301 34.5 -14.5s14.5 -21.167 14.5 -34.5v-564h98c12 0 22.333 -4.33301 31 -13s13 -19 13 -31
s-4.33301 -22.167 -13 -30.5s-19 -12.5 -31 -12.5h-309c-12 0 -22.167 4.16699 -30.5 12.5z" />
    <glyph glyph-name="two" unicode="2" horiz-adv-x="628" 
d="M79 13.5c-10 9.66699 -14.998 22.502 -14.998 38.502c0 35.333 10.333 67.666 31 96.999c18.667 27.333 41.334 51.833 68.001 73.5s66.667 49.5 120 83.5c38.667 24.667 71 46.667 97 66c56 42 84 84 84 126c0 40 -13.167 70.5 -39.5 91.5s-65.5 31.5 -117.5 31.5
c-60 0 -117 -12 -171 -36c-8 -3.33301 -14.333 -5 -19 -5c-10.667 0 -19.834 3.83301 -27.501 11.5s-11.5 17.167 -11.5 28.5c0 16.667 7.66699 29.334 23 38.001c68 34 142 51 222 51c44 0 83 -8.33301 117 -25c36 -17.333 64 -41.5 84 -72.5s30 -66.5 30 -106.5
c0 -40.667 -11.333 -77.334 -34 -110.001c-21.333 -31.333 -46.833 -59.333 -76.5 -84s-73.5 -55.667 -131.5 -93c-50.667 -34.667 -86.834 -60.834 -108.501 -78.501s-36.834 -35.5 -45.501 -53.5h346c12 0 22.333 -4.33301 31 -13s13 -19 13 -31
s-4.33301 -22.167 -13 -30.5s-19 -12.5 -31 -12.5h-386c-16 0 -29 4.83301 -39 14.5z" />
    <glyph glyph-name="three" unicode="3" horiz-adv-x="628" 
d="M513.5 302c27 -29.333 40.501 -68.999 40.501 -118.999c0 -60.667 -23.833 -108.167 -71.5 -142.5s-110.5 -51.5 -188.5 -51.5c-76 0 -145.667 13.333 -209 40c-18 7.33301 -27 20.333 -27 39c0 12 3.83301 22.167 11.5 30.5s17.5 12.5 29.5 12.5
c6 0 12.333 -1.33301 19 -4c48.667 -19.333 101.667 -29 159 -29c55.333 0 99.833 9 133.5 27s50.5 45.667 50.5 83c0 83.333 -73.333 125 -220 125h-16c-11.333 0 -21.333 4.33301 -30 13s-13 18.667 -13 30s4.33301 21.333 13 30s18.667 13 30 13h6
c67.333 0 118.333 10.167 153 30.5s52 50.166 52 89.499c0 32.667 -13.667 58 -41 76s-66 27 -116 27c-56.667 0 -108.334 -11 -155.001 -33c-6.66699 -2.66699 -12.667 -4 -18 -4c-10 0 -18.833 3.66699 -26.5 11s-11.5 16.333 -11.5 27c0 15.333 7 27 21 35
c63.333 34 129.333 51 198 51c76.667 0 136.167 -15.667 178.5 -47s63.5 -76 63.5 -134c0 -81.333 -39.667 -137 -119 -167c42 -10 76.5 -29.667 103.5 -59z" />
    <glyph glyph-name="four" unicode="4" horiz-adv-x="628" 
d="M400.5 7.5c-9 9 -13.499 19.833 -13.499 32.5v135h-304c-16 0 -29.833 5.66699 -41.5 17s-17.5 25 -17.5 41v9c0 14 4 26.333 12 37l314 401c6 7.33301 13.5 13.166 22.5 17.499s18.5 6.5 28.5 6.5h20c17.333 0 31.5 -5.66699 42.5 -17s16.5 -25.333 16.5 -42v-387h75
c11.333 0 21.166 -4.16699 29.499 -12.5s12.5 -18.166 12.5 -29.499c0 -12 -4 -21.833 -12 -29.5s-18 -11.5 -30 -11.5h-75v-135c0 -12.667 -4.66699 -23.5 -14 -32.5s-20.333 -13.5 -33 -13.5s-23.5 4.5 -32.5 13.5zM385.001 581c-1.33301 2 -2.66699 3 -4 3
c-2 0 -4.66699 -2 -8 -6l-238 -306c-2.66699 -2.66699 -4 -5 -4 -7c0 -4.66699 3.66699 -7 11 -7h245v316c0 2.66699 -0.666992 5 -2 7z" />
    <glyph glyph-name="five" unicode="5" horiz-adv-x="628" 
d="M83 47c-6.66699 4.66699 -11.6689 9.66895 -15.002 15.002s-5 12.666 -5 21.999c0 12.667 3.83301 23.167 11.5 31.5s17.5 12.5 29.5 12.5c6 0 13 -1.66699 21 -5c54 -28 107.333 -42 160 -42c65.333 0 114 10.833 146 32.5s48 57.5 48 107.5
c0 41.333 -13.667 73.833 -41 97.5s-65 35.5 -113 35.5c-56 0 -107 -14.333 -153 -43l-12 -6c-6.66699 -4 -14.667 -6 -24 -6c-19.333 0 -35.333 5.5 -48 16.5s-19 25.167 -19 42.5c0 5.33301 0.666992 13.333 2 24l45 266c2 15.333 7.83301 27.666 17.5 36.999
s21.834 14 36.501 14h321c12 0 22.333 -4.33301 31 -13s13 -19 13 -31s-4.33301 -22.167 -13 -30.5s-19 -12.5 -31 -12.5h-270c-12.667 0 -20 -6 -22 -18l-29 -191c51.333 26.667 107.333 40 168 40c48 0 90.333 -9.66699 127 -29c34.667 -19.333 61.167 -46 79.5 -80
s27.5 -73.333 27.5 -118c0 -69.333 -23.667 -124.5 -71 -165.5s-115.333 -61.5 -204 -61.5c-81.333 0 -152.666 19.333 -213.999 58z" />
    <glyph glyph-name="six" unicode="6" horiz-adv-x="628" 
d="M552.5 339.5c19 -35.667 28.5 -76.499 28.5 -122.499c0 -41.333 -10 -79.666 -30 -114.999c-20.667 -36 -50 -63.833 -88 -83.5s-81.333 -29.5 -130 -29.5c-183.333 0 -275 119.667 -275 359c0 56.667 9.66699 113 29 169c20 58 52.333 104.5 97 139.5
s99.667 52.5 165 52.5c35.333 0 66.833 -3.66699 94.5 -11s55.167 -18 82.5 -32c6.66699 -3.33301 12 -8.5 16 -15.5s6 -14.167 6 -21.5c0 -10.667 -4 -20.334 -12 -29.001s-18 -13 -30 -13c-6 0 -11.667 1 -17 3c-42 19.333 -86.333 29 -133 29
c-68.667 0 -119.5 -23.5 -152.5 -70.5s-51.833 -107.167 -56.5 -180.5c46.667 56.667 114.667 85 204 85c45.333 0 85.333 -9.66699 120 -29c35.333 -20.667 62.5 -48.834 81.5 -84.501zM469 147.501c12.667 21.667 18.999 45.499 18.999 71.499
c0 46.667 -13 83.167 -39 109.5s-62.333 39.5 -109 39.5c-86 0 -148.667 -36.333 -188 -109c18 -122 78.667 -183 182 -183c30 0 57.333 6.66699 82 20c22.667 12.667 40.334 29.834 53.001 51.501z" />
    <glyph glyph-name="seven" unicode="7" horiz-adv-x="628" 
d="M197.5 7.5c-9 9 -13.5 19.833 -13.5 32.5c0 9.33301 2 17.333 6 24l267 532c1.33301 4 2 6.33301 2 7c0 4.66699 -3.33301 7 -10 7h-346c-12 0 -22.333 4.33301 -31 13s-13 19 -13 31s4.33301 22.5 13 31.5s19 13.5 31 13.5h408c16 0 29.5 -5 40.5 -15s16.5 -23 16.5 -39
c0 -14 -3.33301 -28.667 -10 -44l-284 -581c-4 -8 -10.167 -14.333 -18.5 -19s-16.833 -7 -25.5 -7c-12.667 0 -23.5 4.5 -32.5 13.5z" />
    <glyph glyph-name="eight" unicode="8" horiz-adv-x="628" 
d="M161 18c-38.667 18.667 -67.498 42.665 -86.498 71.998s-28.5 61 -28.5 95c0 92.667 49 155.667 147 189c-34.667 12.667 -62.334 32 -83.001 58s-31 57.333 -31 94c0 30 8 58.333 24 85c16 30 42 53.833 78 71.5s80.333 26.5 133 26.5c55.333 0 100.333 -9 135 -27
c33.333 -17.333 58.333 -40 75 -68s25 -57.333 25 -88c0 -36.667 -10.333 -68 -31 -94s-48.334 -45.333 -83.001 -58c98 -33.333 147 -96.333 147 -189c0 -33.333 -9 -64.666 -27 -93.999c-18.667 -31.333 -48.5 -56.166 -89.5 -74.499s-91.5 -27.5 -151.5 -27.5
c-62 0 -113 9.66699 -153 29zM420.002 443.498c24 20.333 36 45.833 36 76.5c0 33.333 -12.667 59.5 -38 78.5s-60 28.5 -104 28.5s-78.667 -9.5 -104 -28.5s-38 -45.167 -38 -78.5c0 -30.667 12 -56.167 36 -76.5s59.333 -30.5 106 -30.5s82 10.167 106 30.5z
M416.002 91.998c24 12.667 42.168 28.332 54.501 46.999s18.5 37.334 18.5 56.001c0 41.333 -16.5 74 -49.5 98s-74.833 36 -125.5 36s-92.5 -12 -125.5 -36s-49.5 -56.667 -49.5 -98c0 -16.667 6 -34.667 18 -54c12.667 -20.667 32.167 -37.5 58.5 -50.5
s59.166 -19.5 98.499 -19.5c41.333 0 75.333 7 102 21z" />
    <glyph glyph-name="nine" unicode="9" horiz-adv-x="628" 
d="M570 350c0 -58.667 -9.33203 -115.002 -27.999 -169.002c-20 -58 -52.5 -104.5 -97.5 -139.5s-100.167 -52.5 -165.5 -52.5c-35.333 0 -66.833 3.66699 -94.5 11s-55.167 18 -82.5 32c-6.66699 3.33301 -12 8.5 -16 15.5s-6 14.167 -6 21.5
c0 10.667 4.16699 20.334 12.5 29.001s18.166 13 29.499 13c6 0 11.667 -1 17 -3c42 -19.333 86.333 -29 133 -29c68.667 0 119.5 23.5 152.5 70.5s51.833 107.167 56.5 180.5c-46.667 -56.667 -114.667 -85 -204 -85c-44 0 -83.667 9.66699 -119 29
c-36 20.667 -63.5 48.834 -82.5 84.501s-28.5 76.5 -28.5 122.5c0 42 10 80.333 30 115c20.667 36 50 63.833 88 83.5s81.333 29.5 130 29.5c183.333 0 275 -119.667 275 -359zM476.001 438.998c-18 122 -78.667 183.002 -182 183.002c-30.667 0 -57.667 -6.33301 -81 -19
s-41.333 -29.834 -54 -51.501s-19 -45.834 -19 -72.501c0 -46.667 13 -83.167 39 -109.5s62.333 -39.5 109 -39.5c86 0 148.667 36.333 188 109z" />
    <glyph glyph-name="colon" unicode=":" horiz-adv-x="260" 
d="M85 411c-11.333 11.333 -17 24.666 -17 39.999v6c0 15.333 5.66699 28.666 17 39.999s24.666 17 39.999 17h10c15.333 0 28.666 -5.66699 39.999 -17s17 -24.666 17 -39.999v-6c0 -15.333 -5.66699 -28.666 -17 -39.999s-24.666 -17 -39.999 -17h-10
c-15.333 0 -28.666 5.66699 -39.999 17zM85 13c-11.333 11.333 -17 24.666 -17 39.999v6c0 15.333 5.66699 28.666 17 39.999s24.666 17 39.999 17h10c15.333 0 28.666 -5.66699 39.999 -17s17 -24.666 17 -39.999v-6c0 -15.333 -5.66699 -28.666 -17 -39.999
s-24.666 -17 -39.999 -17h-10c-15.333 0 -28.666 5.66699 -39.999 17z" />
    <glyph glyph-name="semicolon" unicode=";" horiz-adv-x="260" 
d="M85 411c-11.333 11.333 -17 24.666 -17 39.999v6c0 15.333 5.66699 28.666 17 39.999s24.666 17 39.999 17h10c15.333 0 28.666 -5.66699 39.999 -17s17 -24.666 17 -39.999v-6c0 -15.333 -5.66699 -28.666 -17 -39.999s-24.666 -17 -39.999 -17h-10
c-15.333 0 -28.666 5.66699 -39.999 17zM71 -142.5c-6 6.33301 -9 13.502 -9 21.502c0 10.667 5 19.334 15 26.001c18 10.667 31 22.667 39 36s12 31.666 12 54.999h-3c-15.333 0 -28.666 5.66699 -39.999 17s-17 24.666 -17 39.999v6c0 15.333 5.66699 28.666 17 39.999
s24.666 17 39.999 17h10c14.667 0 27.167 -5.5 37.5 -16.5s16.833 -24.5 19.5 -40.5c1.33301 -6.66699 2 -16.667 2 -30c0 -12.667 -0.666992 -22.334 -2 -29.001c-5.33301 -36 -14 -65.667 -26 -89s-30.667 -42.666 -56 -57.999c-5.33301 -3.33301 -11.333 -5 -18 -5
c-8 0 -15 3.16699 -21 9.5z" />
    <glyph glyph-name="less" unicode="&#x3c;" horiz-adv-x="580" 
d="M470 60l-399 178.998c-24.667 12 -37 29.667 -37 53v8c0 23.333 12.333 41 37 53l399 179c5.33301 2 10.666 3 15.999 3c11.333 0 21 -4 29 -12s12 -17.667 12 -29c0 -8 -2.66699 -15.667 -8 -23s-12 -12.666 -20 -15.999l-358 -159l358 -159
c8 -3.33301 14.667 -8.66602 20 -15.999s8 -15 8 -23c0 -11.333 -4 -21 -12 -29s-17.667 -12 -29 -12c-5.33301 0 -10.666 1 -15.999 3z" />
    <glyph glyph-name="equal" unicode="=" horiz-adv-x="712" 
d="M84 415c-8 8 -12 17.333 -12 28c0 11.333 4 20.833 12 28.5s17.333 11.5 28 11.5h488c11.333 0 20.833 -3.83301 28.5 -11.5s11.5 -17.167 11.5 -28.5c0 -10.667 -3.83301 -20 -11.5 -28s-17.167 -12 -28.5 -12h-488c-10.667 0 -20 4 -28 12zM84 191
c-8 8 -12 17.333 -12 28c0 11.333 4 20.833 12 28.5s17.333 11.5 28 11.5h488c11.333 0 20.833 -3.83301 28.5 -11.5s11.5 -17.167 11.5 -28.5c0 -10.667 -3.83301 -20 -11.5 -28s-17.167 -12 -28.5 -12h-488c-10.667 0 -20 4 -28 12z" />
    <glyph glyph-name="greater" unicode="&#x3e;" horiz-adv-x="580" 
d="M65 69c-8 8 -12 17.6689 -12 29.002c0 8 2.66699 15.667 8 23s12 12.666 20 15.999l357 159l-357 159c-8 3.33301 -14.667 8.66602 -20 15.999s-8 15 -8 23c0 11.333 4 21 12 29s17.667 12 29 12c6 0 11.333 -1 16 -3l399 -179c24.667 -12 37 -29.667 37 -53v-8
c0 -23.333 -12.333 -41 -37 -53l-399 -179c-4.66699 -2 -10 -3 -16 -3c-11.333 0 -21 4 -29 12z" />
    <glyph glyph-name="question" unicode="?" horiz-adv-x="497" 
d="M189.5 196.5c-9 7.66699 -13.499 17.1699 -13.499 28.5029c0 30.667 5.33301 57 16 79c10 21.333 21.667 39.5 35 54.5s33.333 33.167 60 54.5c27.333 21.333 46.5 39.166 57.5 53.499s16.5 30.166 16.5 47.499c0 72 -47.333 108 -142 108
c-23.333 0 -46 -2.83301 -68 -8.5s-41.667 -13.834 -59 -24.501c-9.33301 -5.33301 -18 -8 -26 -8c-10.667 0 -20.167 4.16699 -28.5 12.5s-12.5 17.833 -12.5 28.5c0 15.333 8.33301 28.333 25 39c27.333 17.333 55 29.666 83 36.999s59.333 11 94 11
c68.667 0 123.5 -17.167 164.5 -51.5s61.5 -80.5 61.5 -138.5c0 -24.667 -4.66699 -47.334 -14 -68.001c-8.66699 -19.333 -19.334 -35.666 -32.001 -48.999s-31 -29.666 -55 -48.999c-31.333 -24.667 -53.5 -46 -66.5 -64s-19.5 -39.333 -19.5 -64
c0 -10.667 -4.5 -20 -13.5 -28s-19.5 -12 -31.5 -12s-22.5 3.83301 -31.5 11.5zM177.001 13.0029c-12 12 -18 26.333 -18 43c0 16 6 30 18 42s26 18 42 18c16.667 0 31 -6 43 -18s18 -26 18 -42c0 -16.667 -6 -31 -18 -43s-26.333 -18 -43 -18c-16 0 -30 6 -42 18z" />
    <glyph glyph-name="at" unicode="@" horiz-adv-x="898" 
d="M215 -37c-52.667 31.333 -93.6641 73.665 -122.997 126.998s-44 110.666 -44 171.999c0 76.667 19.333 147.334 58 212.001c38.667 66 90.834 118.333 156.501 157s135.834 58 210.501 58c68.667 0 132.334 -14.667 191.001 -44c59.333 -30.667 106 -72.5 140 -125.5
s51 -112.167 51 -177.5c0 -44 -6.33301 -83.667 -19 -119c-13.333 -39.333 -34.333 -70.666 -63 -93.999s-63.667 -35 -105 -35c-31.333 0 -56.833 6.83301 -76.5 20.5s-31.834 31.167 -36.501 52.5c-20 -24.667 -44.167 -43.167 -72.5 -55.5s-58.833 -18.5 -91.5 -18.5
c-52.667 0 -94.334 16.333 -125.001 49s-46 75.334 -46 128.001c0 50 11.333 93.667 34 131c21.333 36 50.333 63.833 87 83.5s75.667 29.5 117 29.5c50.667 0 93 -16.667 127 -50l3 15c1.33301 9.33301 5.66602 17 12.999 23s15.666 9 24.999 9
c10.667 0 19.5 -3.66699 26.5 -11s10.5 -16.333 10.5 -27l-1 -11l-33 -190c-4.66699 -23.333 -7 -45 -7 -65s4.33301 -35.667 13 -47s20.667 -17 36 -17c40 0 71.333 17.5 94 52.5s34 83.833 34 146.5c0 60.667 -15.667 113.334 -47 158.001
c-30.667 43.333 -70.834 76.5 -120.501 99.5s-102.5 34.5 -158.5 34.5c-64.667 0 -125.667 -17 -183 -51c-57.333 -34.667 -103 -80.5 -137 -137.5s-51 -118.167 -51 -183.5c0 -48 12 -95 36 -141c24.667 -46 59.5 -82.667 104.5 -110s97.5 -41 157.5 -41
c38.667 0 72.834 3.5 102.501 10.5s65.167 18.833 106.5 35.5c5.33301 1.33301 9 2 11 2c7.33301 0 13.5 -2.5 18.5 -7.5s7.5 -10.833 7.5 -17.5c0 -4.66699 -1.33301 -9.33398 -4 -14.001s-6.33398 -8 -11.001 -10c-70.667 -35.333 -147.667 -53 -231 -53
c-68.667 0 -130.334 15.667 -185.001 47zM558.003 302.999l16.001 93c-28.667 30 -66 45 -112 45c-30 0 -56.667 -6.33301 -80 -19c-26 -13.333 -46.333 -32.333 -61 -57s-22 -53 -22 -85c0 -36.667 10.167 -65.167 30.5 -85.5s48.166 -30.5 83.499 -30.5
c80.667 0 129 46.333 145 139z" />
    <glyph glyph-name="A" unicode="A" horiz-adv-x="746" 
d="M62 7.5c-8.66699 9 -13 19.833 -13 32.5c0 4.66699 1.66699 11.334 5 20.001l255 602c6 13.333 14 23.666 24 30.999s21.667 11 35 11h10c13.333 0 25 -3.66699 35 -11s18 -17.666 24 -30.999l255 -602c3.33301 -8.66699 5 -15.334 5 -20.001
c0 -12.667 -4.33301 -23.5 -13 -32.5s-19.667 -13.5 -33 -13.5c-10 0 -18.833 2.5 -26.5 7.5s-13.5 12.167 -17.5 21.5l-65 155h-338l-65 -155c-4 -9.33301 -9.83301 -16.5 -17.5 -21.5s-16.5 -7.5 -26.5 -7.5c-13.333 0 -24.333 4.5 -33 13.5zM373 573
c-3.33301 0 -6 -2.33301 -8 -7l-126 -303h268l-126 303c-2 4.66699 -4.66699 7 -8 7z" />
    <glyph glyph-name="B" unicode="B" horiz-adv-x="693" 
d="M109.5 12.5c-9 9 -13.499 19.8301 -13.499 32.4971v607c0 12.667 4.5 23.667 13.5 33s19.833 14 32.5 14h236c70 0 125 -16.167 165 -48.5s60 -76.833 60 -133.5c0 -36.667 -8.66699 -68.167 -26 -94.5s-40.666 -46.166 -69.999 -59.499
c41.333 -13.333 74.166 -34.166 98.499 -62.499s36.5 -63.166 36.5 -104.499c0 -64.667 -21.833 -113.667 -65.5 -147s-107.834 -50 -192.501 -50h-242c-12.667 0 -23.5 4.5 -32.5 13.5zM477.001 425.497c24.667 19 37 47.168 37 84.501
c0 31.333 -12.833 56.166 -38.5 74.499s-60.5 27.5 -104.5 27.5h-170c-8 0 -12 -4 -12 -12v-203h165c57.333 0 98.333 9.5 123 28.5zM510.501 114.498c27.667 19 41.499 47.5 41.499 85.5c0 75.333 -58.667 113 -176 113h-187v-215c0 -8 4 -12 12 -12h174
c62.667 0 107.834 9.5 135.501 28.5z" />
    <glyph glyph-name="C" unicode="C" horiz-adv-x="695" 
d="M226 33c-54 29.333 -96.168 71.3301 -126.501 125.997s-45.5 118 -45.5 190c0 72.667 15.333 136.334 46 191.001c30 54 71.5 95.667 124.5 125s113.167 44 180.5 44c44 0 83.667 -5 119 -15s71.666 -25.667 108.999 -47c15.333 -7.33301 23 -20.333 23 -39
c0 -10 -3.83301 -19 -11.5 -27s-17.5 -12 -29.5 -12c-7.33301 0 -13.333 1.33301 -18 4c-30.667 16 -60 27.833 -88 35.5s-59.667 11.5 -95 11.5c-57.333 0 -105.666 -11.667 -144.999 -35s-69.5 -55.166 -90.5 -95.499s-31.5 -87.166 -31.5 -140.499
s10.333 -99.666 31 -138.999c20.667 -42 51.334 -74.5 92.001 -97.5s88.667 -34.5 144 -34.5c35.333 0 67 3.83301 95 11.5s57.333 19.5 88 35.5c4.66699 2.66699 10.667 4 18 4c12 0 21.833 -3.83301 29.5 -11.5s11.5 -16.834 11.5 -27.501c0 -18 -7.66699 -31 -23 -39
c-37.333 -21.333 -73.666 -37 -108.999 -47s-75 -15 -119 -15c-66.667 0 -126.334 14.667 -179.001 44z" />
    <glyph glyph-name="D" unicode="D" horiz-adv-x="751" 
d="M109.5 12.5c-9 9 -13.499 19.833 -13.499 32.5v607c0 12.667 4.5 23.667 13.5 33s19.833 14 32.5 14h201c75.333 0 140.333 -16.667 195 -50c51.333 -33.333 90.666 -76.5 117.999 -129.5s41 -109.833 41 -170.5c0 -59.333 -13.333 -115.333 -40 -168
c-27.333 -56 -68 -100.333 -122 -133s-118 -49 -192 -49h-201c-12.667 0 -23.5 4.5 -32.5 13.5zM476.001 120c41.333 22 73.167 52.667 95.5 92s33.5 85 33.5 137s-11.333 98 -34 138s-54.667 70.833 -96 92.5s-89 32.5 -143 32.5h-131c-8 0 -12 -4 -12 -12v-502
c0 -8 4 -12 12 -12h131c54.667 0 102.667 11.333 144 34z" />
    <glyph glyph-name="E" unicode="E" horiz-adv-x="638" 
d="M109.5 12.5c-9 9 -13.5 19.833 -13.5 32.5v607c0 12.667 4.5 23.667 13.5 33s19.833 14 32.5 14h401c12 0 22.333 -4.33301 31 -13s13 -19 13 -31s-4.33301 -22.167 -13 -30.5s-19 -12.5 -31 -12.5h-342c-8 0 -12 -4 -12 -12v-207h318c12 0 22.333 -4.33301 31 -13
s13 -19 13 -31s-4.33301 -22.167 -13 -30.5s-19 -12.5 -31 -12.5h-318v-208c0 -8 4 -12 12 -12h342c12 0 22.333 -4.33301 31 -13s13 -19 13 -31s-4.33301 -22.167 -13 -30.5s-19 -12.5 -31 -12.5h-401c-12.667 0 -23.5 4.5 -32.5 13.5z" />
    <glyph glyph-name="F" unicode="F" horiz-adv-x="608" 
d="M109.5 7.5c-9 9 -13.5 19.833 -13.5 32.5v612c0 12.667 4.5 23.667 13.5 33s19.833 14 32.5 14h389c12 0 22.333 -4.33301 31 -13s13 -19 13 -31s-4.33301 -22.167 -13 -30.5s-19 -12.5 -31 -12.5h-330c-8 0 -12 -4 -12 -12v-207h307c12 0 22.333 -4.33301 31 -13
s13 -19 13 -31s-4.33301 -22.167 -13 -30.5s-19 -12.5 -31 -12.5h-307v-266c0 -12.667 -4.66699 -23.5 -14 -32.5s-20.333 -13.5 -33 -13.5s-23.5 4.5 -32.5 13.5z" />
    <glyph glyph-name="G" unicode="G" horiz-adv-x="757" 
d="M223 35c-54 30.667 -95.666 73.167 -124.999 127.5s-44 116.166 -44 185.499c0 70.667 15.333 133.334 46 188.001s72.667 97.167 126 127.5s112.333 45.5 177 45.5c49.333 0 93.5 -6 132.5 -18s77.833 -30 116.5 -54c6 -2.66699 11 -7.5 15 -14.5s6 -14.5 6 -22.5
c0 -11.333 -4 -21.166 -12 -29.499s-18.333 -12.5 -31 -12.5c-6 0 -13 1.66699 -21 5c-32 18.667 -63.667 32.667 -95 42s-65 14 -101 14c-48.667 0 -94.334 -10.667 -137.001 -32c-41.333 -22 -73.166 -53.667 -95.499 -95s-33.5 -89.333 -33.5 -144
c0 -51.333 11 -97.666 33 -138.999c22 -42 53.667 -74.5 95 -97.5s89 -34.5 143 -34.5c61.333 0 119.333 14.667 174 44v167c0 8 -4 12 -12 12h-152c-11.333 0 -21.166 4.16699 -29.499 12.5s-12.5 18.166 -12.5 29.499s4.16699 21.166 12.5 29.499s18.166 12.5 29.499 12.5
h197c13.333 0 24.833 -4.83301 34.5 -14.5s14.5 -21.167 14.5 -34.5v-227c0 -14 -3.33301 -26.5 -10 -37.5s-16.334 -19.5 -29.001 -25.5c-76 -37.333 -152.333 -56 -229 -56c-69.333 0 -130.333 15.333 -183 46z" />
    <glyph glyph-name="H" unicode="H" horiz-adv-x="755" 
d="M109.5 7.5c-9 9 -13.5 19.833 -13.5 32.5v617c0 12.667 4.5 23.667 13.5 33s19.833 14 32.5 14s23.667 -4.66699 33 -14s14 -20.333 14 -33v-265h377v265c0 12.667 4.5 23.667 13.5 33s19.833 14 32.5 14s23.667 -4.66699 33 -14s14 -20.333 14 -33v-617
c0 -12.667 -4.66699 -23.5 -14 -32.5s-20.333 -13.5 -33 -13.5s-23.5 4.5 -32.5 13.5s-13.5 19.833 -13.5 32.5v265h-377v-265c0 -12.667 -4.66699 -23.5 -14 -32.5s-20.333 -13.5 -33 -13.5s-23.5 4.5 -32.5 13.5z" />
    <glyph glyph-name="I" unicode="I" horiz-adv-x="285" 
d="M109.5 7.5c-9 9 -13.5 19.833 -13.5 32.5v617c0 12.667 4.5 23.667 13.5 33s19.833 14 32.5 14s23.667 -4.66699 33 -14s14 -20.333 14 -33v-617c0 -12.667 -4.66699 -23.5 -14 -32.5s-20.333 -13.5 -33 -13.5s-23.5 4.5 -32.5 13.5z" />
    <glyph glyph-name="J" unicode="J" horiz-adv-x="466" 
d="M34 23c-14.667 9.33301 -21.999 21.999 -21.999 37.999c0 10.667 3.66699 20.334 11 29.001s16.666 13 27.999 13c7.33301 0 13.333 -1.33301 18 -4c30 -14.667 61 -22 93 -22c38.667 0 68.334 11 89.001 33s31 60 31 114v433c0 12.667 4.5 23.667 13.5 33
s19.833 14 32.5 14s23.667 -4.66699 33 -14s14 -20.333 14 -33v-427c0 -79.333 -17.5 -139.333 -52.5 -180s-86.5 -61 -154.5 -61c-48.667 0 -93.334 11.333 -134.001 34z" />
    <glyph glyph-name="K" unicode="K" horiz-adv-x="670" 
d="M109.5 7.5c-9 9 -13.501 19.834 -13.501 32.501v617c0 12.667 4.5 23.667 13.5 33s19.833 14 32.5 14s23.667 -4.66699 33 -14s14 -20.333 14 -33v-316l340 347c8.66699 10.667 20.334 16 35.001 16c12 0 22.167 -3.83301 30.5 -11.5s12.5 -17.5 12.5 -29.5
c0 -12.667 -3.66699 -23.334 -11 -32.001l-231 -229l265 -333c7.33301 -9.33301 11 -20 11 -32s-4.5 -22.167 -13.5 -30.5s-19.5 -12.5 -31.5 -12.5c-14.667 0 -27 6 -37 18l-257 328l-113 -113v-187c0 -12.667 -4.66699 -23.5 -14 -32.5s-20.333 -13.5 -33 -13.5
s-23.5 4.5 -32.5 13.5z" />
    <glyph glyph-name="L" unicode="L" horiz-adv-x="576" 
d="M115 18c-12.667 12.667 -19 27.667 -19 45v594c0 12.667 4.5 23.667 13.5 33s19.833 14 32.5 14s23.667 -4.66699 33 -14s14 -20.333 14 -33v-553c0 -8 4 -12 12 -12h314c12.667 0 23.667 -4.66699 33 -14s14 -20.333 14 -33s-4.66699 -23.5 -14 -32.5
s-20.333 -13.5 -33 -13.5h-355c-17.333 0 -32.333 6.33301 -45 19z" />
    <glyph glyph-name="M" unicode="M" horiz-adv-x="966" 
d="M109.5 7.5c-9 9 -13.5 19.833 -13.5 32.5v597c0 18 6.5 33.667 19.5 47s28.5 20 46.5 20h33c12.667 0 24.667 -3.83301 36 -11.5s20 -18.167 26 -31.5l218 -544c2 -4.66699 4.66699 -7 8 -7s6 2.33301 8 7l218 544c6 13.333 14.667 23.833 26 31.5s23.333 11.5 36 11.5
h33c18 0 33.5 -6.66699 46.5 -20s19.5 -29 19.5 -47v-597c0 -12.667 -4.5 -23.5 -13.5 -32.5s-19.833 -13.5 -32.5 -13.5s-23.667 4.5 -33 13.5s-14 19.833 -14 32.5v528c0 6 -2 9 -6 9c-2.66699 0 -5 -2 -7 -6l-216 -534c-5.33301 -12.667 -14 -23 -26 -31s-25 -12 -39 -12
s-27 4 -39 12s-20.667 18.333 -26 31l-216 534c-2 4 -4.33301 6 -7 6c-4 0 -6 -3 -6 -9v-528c0 -12.667 -4.66699 -23.5 -14 -32.5s-20.333 -13.5 -33 -13.5s-23.5 4.5 -32.5 13.5z" />
    <glyph glyph-name="N" unicode="N" horiz-adv-x="803" 
d="M109.5 7.5c-9 9 -13.499 19.833 -13.499 32.5v597c0 18 6.5 33.667 19.5 47s28.5 20 46.5 20h13c21.333 0 40 -10 56 -30l369 -533c3.33301 -4 6 -6 8 -6c1.33301 0 2.66602 1 3.99902 3s2 4.33301 2 7v512c0 12.667 4.5 23.667 13.5 33s19.833 14 32.5 14
s23.667 -4.66699 33 -14s14 -20.333 14 -33v-597c0 -18 -6.66699 -33.5 -20 -46.5s-29 -19.5 -47 -19.5h-12c-10.667 0 -20.834 2.5 -30.501 7.5s-17.5 11.5 -23.5 19.5l-371 536c-3.33301 4 -6 6 -8 6c-1.33301 0 -2.66602 -1 -3.99902 -3s-2 -4.33301 -2 -7v-513
c0 -12.667 -4.66699 -23.5 -14 -32.5s-20.333 -13.5 -33 -13.5s-23.5 4.5 -32.5 13.5z" />
    <glyph glyph-name="O" unicode="O" horiz-adv-x="812" 
d="M221 35c-52 30.667 -92.499 73.167 -121.499 127.5s-44.167 116.5 -45.5 186.5c1.33301 70 16.333 132 45 186c28.667 54.667 69.667 97.334 123 128.001s114.666 46 183.999 46c70 0 131.667 -15.333 185 -46c52 -30.667 92.5 -73.334 121.5 -128.001
s44.167 -116.667 45.5 -186c-1.33301 -69.333 -16.333 -131 -45 -185c-29.333 -55.333 -70.5 -98.333 -123.5 -129s-114.167 -46 -183.5 -46c-70 0 -131.667 15.333 -185 46zM544.001 112c38.667 23.333 68.499 55.5 89.499 96.5s31.5 87.833 31.5 140.5
c0 52 -10.333 98.667 -31 140c-21.333 42 -51.666 74.667 -90.999 98s-85 35 -137 35c-54 0 -100 -12 -138 -36c-38.667 -23.333 -68.5 -55.5 -89.5 -96.5s-31.5 -87.833 -31.5 -140.5c0 -52 10.333 -98.667 31 -140c21.333 -42.667 51.5 -75.5 90.5 -98.5
s84.833 -34.5 137.5 -34.5c54 0 100 12 138 36z" />
    <glyph glyph-name="P" unicode="P" horiz-adv-x="672" 
d="M109.5 7.5c-9 9 -13.501 19.833 -13.501 32.5v612c0 12.667 4.5 23.667 13.5 33s19.833 14 32.5 14h228c62.667 0 114.334 -10.667 155.001 -32c37.333 -20 65.5 -46.167 84.5 -78.5s28.5 -69.833 28.5 -112.5c0 -39.333 -8.66699 -75.333 -26 -108
c-18 -35.333 -47.5 -63.333 -88.5 -84s-92.167 -31 -153.5 -31h-181v-213c0 -12.667 -4.66699 -23.5 -14 -32.5s-20.333 -13.5 -33 -13.5s-23.5 4.5 -32.5 13.5zM498.499 375.5c31 23 46.5 56.5 46.5 100.5s-15.5 77.5 -46.5 100.5s-76.833 34.5 -137.5 34.5h-160
c-8 0 -12 -4 -12 -12v-258h172c60.667 0 106.5 11.5 137.5 34.5z" />
    <glyph glyph-name="Q" unicode="Q" horiz-adv-x="812" 
d="M574 -137l-108.001 129.999c-15.333 -2.66699 -35.333 -4 -60 -4c-70 0 -131.667 15.333 -185 46c-52 30.667 -92.5 73.167 -121.5 127.5s-44.167 116.5 -45.5 186.5c1.33301 70 16.333 132 45 186c28.667 54.667 69.667 97.334 123 128.001s114.666 46 183.999 46
c70 0 131.667 -15.333 185 -46c52 -30.667 92.5 -73.334 121.5 -128.001s44.167 -116.667 45.5 -186c-1.33301 -78 -20.166 -146.167 -56.499 -204.5s-86.166 -100.833 -149.499 -127.5l87 -96c8 -9.33301 12 -20 12 -32c0 -11.333 -4.5 -21.166 -13.5 -29.499
s-19.167 -12.5 -30.5 -12.5c-12.667 0 -23.667 5.33301 -33 16zM543.999 111.999c38.667 23.333 68.499 55.5 89.499 96.5s31.5 87.833 31.5 140.5c0 52 -10.333 98.667 -31 140c-21.333 42 -51.666 74.667 -90.999 98s-85 35 -137 35c-54 0 -100 -12 -138 -36
c-38.667 -23.333 -68.5 -55.5 -89.5 -96.5s-31.5 -87.833 -31.5 -140.5c0 -52 10.333 -98.667 31 -140c21.333 -42.667 51.5 -75.5 90.5 -98.5s84.833 -34.5 137.5 -34.5c54 0 100 12 138 36z" />
    <glyph glyph-name="R" unicode="R" horiz-adv-x="712" 
d="M613 230.5c19.333 -43 29.002 -91.1641 29.002 -144.497v-46c0 -12.667 -4.5 -23.5 -13.5 -32.5s-19.833 -13.5 -32.5 -13.5c-14 0 -25.333 4.16699 -34 12.5s-13 19.5 -13 33.5v30c0 33.333 -3 64.333 -9 93c-6.66699 31.333 -21.834 57.166 -45.501 77.499
s-56.834 30.5 -99.501 30.5h-206v-231c0 -12.667 -4.66699 -23.5 -14 -32.5s-20.333 -13.5 -33 -13.5s-23.5 4.5 -32.5 13.5s-13.5 19.833 -13.5 32.5v612c0 12.667 4.5 23.667 13.5 33s19.833 14 32.5 14h233c88 0 155.5 -18.5 202.5 -55.5s70.5 -86.5 70.5 -148.5
c0 -40.667 -11.167 -77.334 -33.5 -110.001s-54.166 -56.334 -95.499 -71.001c43.333 -12.667 74.666 -40.5 93.999 -83.5zM505.502 393.503c33 23 49.5 54.501 49.5 94.501c0 41.333 -14.833 72.166 -44.5 92.499s-78.5 30.5 -146.5 30.5h-163c-8 0 -12 -4 -12 -12v-240
h180c58 0 103.5 11.5 136.5 34.5z" />
    <glyph glyph-name="S" unicode="S" horiz-adv-x="616" 
d="M79 37c-8 3.33301 -14.8301 9.00098 -20.4971 17.001s-8.5 16.333 -8.5 25c0 12 4 22.167 12 30.5s18 12.5 30 12.5c7.33301 0 13.666 -1.33301 18.999 -4c62 -27.333 127.667 -41 197 -41c116 0 174 38 174 114c0 20 -7.33301 36.333 -22 49
c-13.333 12.667 -30 22.667 -50 30s-53 17 -99 29c-52.667 13.333 -96.334 27 -131.001 41c-40.667 15.333 -71.334 36.833 -92.001 64.5s-31 60.5 -31 98.5s10 73 30 105c20.667 32.667 51.167 57.667 91.5 75s86.5 26 138.5 26c73.333 0 139.666 -11 198.999 -33
c19.333 -7.33301 29 -21 29 -41c0 -10.667 -4 -20.5 -12 -29.5s-17.667 -13.5 -29 -13.5c-4.66699 0 -10 1.33301 -16 4c-52 18 -105.667 27 -161 27c-53.333 0 -96.166 -10 -128.499 -30s-48.5 -47.667 -48.5 -83c0 -24 8 -43 24 -57c14.667 -14 33 -25.333 55 -34
s55 -18 99 -28c56 -13.333 98.667 -26 128 -38c35.333 -13.333 63.833 -34 85.5 -62s32.5 -63.333 32.5 -106c0 -36.667 -10.667 -70.334 -32 -101.001c-22 -30.667 -52.5 -54.167 -91.5 -70.5s-83.5 -24.5 -133.5 -24.5c-84.667 0 -164 16 -238 48z" />
    <glyph glyph-name="T" unicode="T" horiz-adv-x="609" 
d="M271.5 7.5c-9 9 -13.5 19.833 -13.5 32.5v572h-203c-12 0 -22.167 4.16699 -30.5 12.5s-12.5 18.5 -12.5 30.5s4.16699 22.333 12.5 31s18.5 13 30.5 13h498c12 0 22.333 -4.33301 31 -13s13 -19 13 -31s-4.33301 -22.167 -13 -30.5s-19 -12.5 -31 -12.5h-202v-572
c0 -12.667 -4.66699 -23.5 -14 -32.5s-20.333 -13.5 -33 -13.5s-23.5 4.5 -32.5 13.5z" />
    <glyph glyph-name="U" unicode="U" horiz-adv-x="758" 
d="M242 19c-46 20.667 -82.667 52 -110 94s-41 91.667 -41 149v395c0 12.667 4.5 23.667 13.5 33s19.833 14 32.5 14s23.667 -4.66699 33 -14s14 -20.333 14 -33v-398c0 -40.667 9.33301 -74.334 28 -101.001c17.333 -27.333 40.833 -48.166 70.5 -62.499
s61.834 -21.5 96.501 -21.5c34 0 66 7 96 21c31.333 14.667 55.666 36.167 72.999 64.5s26 61.5 26 99.5v398c0 12.667 4.5 23.667 13.5 33s19.833 14 32.5 14s23.667 -4.66699 33 -14s14 -20.333 14 -33v-395c0 -58.667 -14 -109 -42 -151
c-27.333 -40 -62.833 -70.333 -106.5 -91s-90.167 -31 -139.5 -31c-48 0 -93.667 10 -137 30z" />
    <glyph glyph-name="V" unicode="V" horiz-adv-x="694" 
d="M273 41l-247 599c-2 5.33301 -3 11 -3 17c0 14 4.16699 25.333 12.5 34s19.5 13 33.5 13c10 0 18.833 -2.83301 26.5 -8.5s13.5 -13.5 17.5 -23.5l226 -564c2 -4.66699 4.66699 -7 8 -7s6 2.33301 8 7l226 564c4 10 9.83301 17.833 17.5 23.5s16.5 8.5 26.5 8.5
c14 0 25.167 -4.33301 33.5 -13s12.5 -20 12.5 -34c0 -6 -1 -11.667 -3 -17l-247 -599c-14 -31.333 -35 -47 -63 -47h-22c-28 0 -49 15.667 -63 47z" />
    <glyph glyph-name="W" unicode="W" horiz-adv-x="1011" 
d="M249.5 6c-10.333 8 -18.168 19.333 -23.501 34l-196 602c-2 8 -3 14.333 -3 19c0 12 4.33301 22.167 13 30.5s19.334 12.5 32.001 12.5c10.667 0 20.167 -3.33301 28.5 -10s14.166 -15.667 17.499 -27l160 -525c2 -5.33301 4.33301 -8 7 -8s5 2.66699 7 8l161 523
c3.33301 12 10 21.5 20 28.5s21 10.5 33 10.5s23 -3.5 33 -10.5s16.667 -16.5 20 -28.5l161 -523c2 -5.33301 4.33301 -8 7 -8s5 2.66699 7 8l160 525c3.33301 11.333 9.16602 20.333 17.499 27s17.833 10 28.5 10c12.667 0 23.334 -4.16699 32.001 -12.5s13 -18.5 13 -30.5
c0 -4.66699 -1 -11 -3 -19l-196 -602c-5.33301 -14.667 -13.166 -26 -23.499 -34s-22.5 -12 -36.5 -12s-26.5 4.33301 -37.5 13s-18.5 19.667 -22.5 33l-153 484c-2 5.33301 -4.33301 8 -7 8s-5 -2.66699 -7 -8l-153 -484c-4 -13.333 -11.5 -24.333 -22.5 -33
s-23.5 -13 -37.5 -13s-26.167 4 -36.5 12z" />
    <glyph glyph-name="X" unicode="X" horiz-adv-x="671" 
d="M56 7c-8.66699 8.66699 -13.0029 18.6641 -13.0029 29.9971c0 10.667 3 20.334 9 29.001l231 283l-229 281c-6 9.33301 -9 19 -9 29c0 12.667 4.33301 23.334 13 32.001s19.334 13 32.001 13c7.33301 0 14.333 -1.66699 21 -5s12.334 -7.66602 17.001 -12.999l210 -267
l210 269c8 10.667 19.333 16 34 16c12 0 22.5 -4.33301 31.5 -13s13.5 -19 13.5 -31c0 -10 -2.66699 -18.667 -8 -26l-231 -284l231 -283c6 -6.66699 9 -15.667 9 -27c0 -12.667 -4.33301 -23.5 -13 -32.5s-19.667 -13.5 -33 -13.5c-15.333 0 -27.666 6.33301 -36.999 19
l-213 268l-210 -269c-10.667 -12 -22.667 -18 -36 -18c-11.333 0 -21.333 4.33301 -30 13z" />
    <glyph glyph-name="Y" unicode="Y" horiz-adv-x="639" 
d="M287 7.5c-9.33301 9 -14.001 19.833 -14.001 32.5v255l-239 334c-5.33301 10.667 -8 20 -8 28c0 12.667 4.33301 23.667 13 33s19.334 14 32.001 14c17.333 0 31 -7.66699 41 -23l208 -303l208 303c10 15.333 23.667 23 41 23c12 0 22.5 -4.5 31.5 -13.5
s13.5 -19.5 13.5 -31.5c0 -8 -2.66699 -18 -8 -30l-240 -334v-255c0 -12.667 -4.5 -23.5 -13.5 -32.5s-19.833 -13.5 -32.5 -13.5s-23.667 4.5 -33 13.5z" />
    <glyph glyph-name="Z" unicode="Z" horiz-adv-x="638" 
d="M63.5 16.5c-11.667 11.667 -17.5 25.499 -17.5 41.499c0 14.667 4 27.334 12 38.001l405 500c2.66699 2.66699 4 5 4 7c0 4.66699 -3.33301 7 -10 7h-365c-12 0 -22.333 4.33301 -31 13s-13 19 -13 31s4.33301 22.5 13 31.5s19 13.5 31 13.5h434c18 0 32.833 -6 44.5 -18
s17.5 -27 17.5 -45c0 -13.333 -5.33301 -27 -16 -41l-400 -495c-2.66699 -2.66699 -4 -5 -4 -7c0 -4.66699 3.33301 -7 10 -7h372c12 0 22.333 -4.33301 31 -13s13 -19 13 -31s-4.33301 -22.167 -13 -30.5s-19 -12.5 -31 -12.5h-445c-16 0 -29.833 5.83301 -41.5 17.5z" />
    <glyph glyph-name="bracketleft" unicode="[" horiz-adv-x="322" 
d="M99.5 -119.5c-9 9 -13.5 19.499 -13.5 31.499v776c0 12 4.5 22.5 13.5 31.5s19.5 13.5 31.5 13.5h127c10 0 18.667 -3.66699 26 -11s11 -16 11 -26s-3.66699 -18.667 -11 -26s-16 -11 -26 -11h-79c-8 0 -12 -4 -12 -12v-695c0 -8 4 -12 12 -12h79
c10 0 18.667 -3.66699 26 -11s11 -15.666 11 -24.999c0 -10 -3.66699 -18.667 -11 -26s-16 -11 -26 -11h-127c-12 0 -22.5 4.5 -31.5 13.5z" />
    <glyph glyph-name="backslash" unicode="\" horiz-adv-x="443" 
d="M328.5 -88c-7 5.33301 -11.833 12.333 -14.5 21l-265 775c-2 6 -3 11 -3 15c0 12 4 22 12 30s18 12 30 12c10 0 18.5 -2.66699 25.5 -8s11.833 -12.333 14.5 -21l265 -775c2 -6 3 -11 3 -15c0 -12 -4 -22 -12 -30s-18 -12 -30 -12c-10 0 -18.5 2.66699 -25.5 8z" />
    <glyph glyph-name="bracketright" unicode="]" horiz-adv-x="322" 
d="M38 -122c-7.33301 7.33301 -11 16.001 -11 26.001c0 9.33301 3.66699 17.666 11 24.999s16 11 26 11h79c8 0 12 4 12 12v695c0 8 -4 12 -12 12h-79c-10 0 -18.667 3.66699 -26 11s-11 16 -11 26s3.66699 18.667 11 26s16 11 26 11h127c12 0 22.5 -4.5 31.5 -13.5
s13.5 -19.5 13.5 -31.5v-776c0 -12 -4.5 -22.5 -13.5 -31.5s-19.5 -13.5 -31.5 -13.5h-127c-10 0 -18.667 3.66699 -26 11z" />
    <glyph glyph-name="asciicircum" unicode="^" horiz-adv-x="524" 
d="M92 425c-7.33301 7.33301 -11.001 16.001 -11.001 26.001c0 4 2 10 6 18l105 199c6.66699 12 13.834 20.833 21.501 26.5s17.167 8.5 28.5 8.5h38c11.333 0 20.833 -2.83301 28.5 -8.5s14.834 -14.5 21.501 -26.5l105 -199c4 -8 6 -14 6 -18
c0 -10 -3.66699 -18.667 -11 -26s-16 -11 -26 -11c-10.667 0 -20.334 4.33301 -29.001 13c-3.33301 2.66699 -26.333 40 -69 112l-36 60c-2.66699 4.66699 -5.66699 7 -9 7s-6 -2 -8 -6c-33.333 -54.667 -54.333 -89.334 -63 -104.001c-28 -45.333 -43 -69 -45 -71
c-5.33301 -7.33301 -14.333 -11 -27 -11c-10 0 -18.667 3.66699 -26 11z" />
    <glyph glyph-name="underscore" unicode="_" horiz-adv-x="663" 
d="M61.5 -138c-7 6.66699 -10.5 14.667 -10.5 24c0 8.66699 3.5 16.5 10.5 23.5s14.833 10.5 23.5 10.5h493c9.33301 0 17.333 -3.5 24 -10.5s10 -14.833 10 -23.5c0 -9.33301 -3.33301 -17.333 -10 -24s-14.667 -10 -24 -10h-493c-8.66699 0 -16.5 3.33301 -23.5 10z" />
    <glyph glyph-name="grave" unicode="`" horiz-adv-x="240" 
d="M177 577l-69 81.999c-6.66699 6.66699 -10 15.334 -10 26.001c0 12 3.5 21.333 10.5 28s16.167 10 27.5 10c16 0 27.333 -6.66699 34 -20l51 -89c4.66699 -8 7 -14.667 7 -20c0 -8 -2.5 -14.667 -7.5 -20s-11.833 -8 -20.5 -8c-9.33301 0 -17 3.66699 -23 11z" />
    <glyph glyph-name="a" unicode="a" horiz-adv-x="562" 
d="M128 7c-26 12 -46.332 29.666 -60.999 52.999s-22 50 -22 80c0 52 20.167 92.167 60.5 120.5s97.166 42.5 170.499 42.5h120v7c0 42.667 -10.5 73.834 -31.5 93.501s-54.833 29.5 -101.5 29.5c-24 0 -45.667 -1.83301 -65 -5.5s-42 -9.83398 -68 -18.501l-13 -2
c-10 0 -18.833 3.83301 -26.5 11.5s-11.5 16.834 -11.5 27.501c0 18.667 9 31.667 27 39c56 24 113.667 36 173 36c46 0 85.333 -9.33301 118 -28c30.667 -18 53.667 -41.833 69 -71.5s23 -62.5 23 -98.5v-283c0 -12.667 -4.66699 -23.5 -14 -32.5s-20.333 -13.5 -33 -13.5
s-23.5 4.5 -32.5 13.5s-13.5 19.833 -13.5 32.5v24c-48 -50 -110.333 -75 -187 -75c-28.667 0 -55.667 6 -81 18zM326.501 91.499c27 13.667 50.167 31.5 69.5 53.5v83h-108c-100 0 -150 -26 -150 -78c0 -52.667 35 -79 105 -79c28.667 0 56.5 6.83301 83.5 20.5z" />
    <glyph glyph-name="b" unicode="b" horiz-adv-x="631" 
d="M171 64l0.000976562 -24.001c0 -12.667 -4.66699 -23.5 -14 -32.5s-20.333 -13.5 -33 -13.5s-23.5 4.5 -32.5 13.5s-13.5 19.833 -13.5 32.5v649c0 12.667 4.5 23.667 13.5 33s19.833 14 32.5 14c13.333 0 24.5 -4.5 33.5 -13.5s13.5 -20.167 13.5 -33.5v-243
c48 50 104.667 75 170 75c43.333 0 82.666 -10.333 117.999 -31c38.667 -21.333 69.167 -52.666 91.5 -93.999s33.5 -88.333 33.5 -141c0 -54.667 -11.333 -101.667 -34 -141c-22.667 -40 -52.5 -70.833 -89.5 -92.5s-76.833 -32.5 -119.5 -32.5c-65.333 0 -122 25 -170 75z
M447.501 123.499c29 31.667 43.5 75.5 43.5 131.5s-14.5 99.833 -43.5 131.5s-68.833 47.5 -119.5 47.5c-29.333 0 -57.5 -6.66699 -84.5 -20s-51.167 -31.333 -72.5 -54v-210c21.333 -22.667 45.5 -40.667 72.5 -54s55.167 -20 84.5 -20c50.667 0 90.5 15.833 119.5 47.5z
" />
    <glyph glyph-name="c" unicode="c" horiz-adv-x="533" 
d="M182 21c-42 22 -75 53.3301 -99 93.9971s-36 87.334 -36 140.001c0 54 12.333 101.333 37 142c24 39.333 56.167 69.833 96.5 91.5s85.166 32.5 134.499 32.5c33.333 0 62.666 -4.16699 87.999 -12.5s50.666 -20.166 75.999 -35.499c13.333 -9.33301 20 -21.333 20 -36
c0 -10 -4 -19.333 -12 -28s-17 -13 -27 -13c-6.66699 0 -14 2 -22 6c-23.333 12 -42.666 20.333 -57.999 25s-34.333 7 -57 7c-56 0 -100.5 -16.167 -133.5 -48.5s-49.5 -75.833 -49.5 -130.5s16.5 -98.167 49.5 -130.5s77.5 -48.5 133.5 -48.5
c22.667 0 41.667 2.33301 57 7s34.666 13 57.999 25c8 4 15.333 6 22 6c10 0 19 -4.33301 27 -13s12 -18 12 -28c0 -14.667 -6.66699 -26.667 -20 -36c-25.333 -15.333 -50.666 -27.166 -75.999 -35.499s-54.666 -12.5 -87.999 -12.5c-47.333 0 -91.666 10.667 -132.999 32z
" />
    <glyph glyph-name="d" unicode="d" horiz-adv-x="631" 
d="M173 21c-38.667 21.333 -69.335 52.5 -92.002 93.5s-34 87.833 -34 140.5c0 54 11.667 101.333 35 142c22.667 40 52.334 70.667 89.001 92s76.334 32 119.001 32c65.333 0 122 -25 170 -75v243c0 13.333 4.66699 24.5 14 33.5s20.333 13.5 33 13.5
s23.5 -4.66699 32.5 -14s13.5 -20.333 13.5 -33v-649c0 -12.667 -4.5 -23.5 -13.5 -32.5s-19.833 -13.5 -32.5 -13.5s-23.667 4.5 -33 13.5s-14 19.833 -14 32.5v24c-48 -50 -104.667 -75 -170 -75c-40.667 0 -79.667 10.667 -117 32zM387.499 96
c27 13.333 51.167 31.333 72.5 54v210c-21.333 22.667 -45.5 40.667 -72.5 54s-55.167 20 -84.5 20c-50.667 0 -90.5 -15.833 -119.5 -47.5s-43.5 -75.5 -43.5 -131.5s14.5 -99.833 43.5 -131.5s68.833 -47.5 119.5 -47.5c29.333 0 57.5 6.66699 84.5 20z" />
    <glyph glyph-name="e" unicode="e" horiz-adv-x="566" 
d="M115.5 59c-45.667 46.667 -68.501 112 -68.501 196c0 45.333 8.66699 89 26 131c18 42 45.333 75 82 99s80.667 36 132 36c49.333 0 92.333 -11.333 129 -34c34.667 -22.667 61.667 -53.167 81 -91.5s29 -80.833 29 -127.5c0 -12.667 -4.33301 -23.5 -13 -32.5
s-20 -13.5 -34 -13.5h-338c6 -47.333 23.833 -83.5 53.5 -108.5s69.834 -37.5 120.501 -37.5c26.667 0 50.5 2.5 71.5 7.5s42.167 12.833 63.5 23.5c4.66699 2.66699 10.667 4 18 4c10.667 0 20.167 -3.83301 28.5 -11.5s12.5 -17.167 12.5 -28.5c0 -15.333 -9 -28 -27 -38
c-28 -15.333 -54.667 -26.5 -80 -33.5s-57 -10.5 -95 -10.5c-82 0 -145.833 23.333 -191.5 70zM432.999 311c-2.66699 26.667 -10.667 48.999 -24 66.999c-14.667 21.333 -32.834 37.333 -54.501 48s-44.167 16 -67.5 16c-21.333 0 -43.666 -5 -66.999 -15
c-23.333 -11.333 -41.833 -28.166 -55.5 -50.499s-21.5 -48.5 -23.5 -78.5h280c8.66699 0 12.667 4.33301 12 13z" />
    <glyph glyph-name="f" unicode="f" horiz-adv-x="382" 
d="M129.5 7.5c-9 9 -13.501 19.832 -13.501 32.499v391h-58c-10.667 0 -20 4 -28 12s-12 17.333 -12 28c0 11.333 4 20.833 12 28.5s17.333 11.5 28 11.5h58v57c0 40.667 7.33301 73.667 22 99c13.333 24.667 31.5 43.167 54.5 55.5s47.833 18.5 74.5 18.5
c30 0 59 -6.66699 87 -20c16 -9.33301 24 -21.333 24 -36c0 -10 -3.83301 -19 -11.5 -27s-16.5 -12 -26.5 -12c-7.33301 0 -15 1 -23 3l-27 3c-29.333 0 -50.166 -6.66699 -62.499 -20s-18.5 -35.666 -18.5 -66.999v-54h124c11.333 0 20.833 -3.83301 28.5 -11.5
s11.5 -17.167 11.5 -28.5c0 -10.667 -3.83301 -20 -11.5 -28s-17.167 -12 -28.5 -12h-124v-391c0 -12.667 -4.66699 -23.5 -14 -32.5s-20.333 -13.5 -33 -13.5s-23.5 4.5 -32.5 13.5z" />
    <glyph glyph-name="g" unicode="g" horiz-adv-x="631" 
d="M201.5 -226c-39.667 10 -72.501 22.3311 -98.501 36.998c-12.667 8 -19 20 -19 36c0 10.667 4 20.334 12 29.001s17.667 13 29 13c5.33301 0 11.333 -1.33301 18 -4c52 -25.333 107 -38 165 -38c101.333 0 152 54 152 162v64c-46 -49.333 -102.667 -74 -170 -74
c-40 0 -78 10 -114 30c-39.333 20.667 -70.666 50.834 -93.999 90.501s-35 86.5 -35 140.5c0 56 12 104 36 144c23.333 38 53.5 67 90.5 87s75.833 30 116.5 30c67.333 0 124 -24.667 170 -74v22c0 12.667 4.5 23.667 13.5 33s19.833 14 32.5 14s23.667 -4.66699 33 -14
s14 -20.333 14 -33v-447c0 -84 -20.333 -148.833 -61 -194.5s-99 -68.5 -175 -68.5c-37.333 0 -75.833 5 -115.5 15zM388.499 102.498c23.667 12.333 47.5 30.5 71.5 54.5v206c-24 24 -47.833 42.167 -71.5 54.5s-50.167 18.5 -79.5 18.5
c-51.333 0 -92.333 -15.333 -123 -46s-46 -74 -46 -130s15.333 -99.333 46 -130s71.667 -46 123 -46c29.333 0 55.833 6.16699 79.5 18.5z" />
    <glyph glyph-name="h" unicode="h" horiz-adv-x="609" 
d="M91.5 7.5c-9 9 -13.498 19.834 -13.498 32.501v649c0 12.667 4.5 23.667 13.5 33s19.833 14 32.5 14s23.667 -4.66699 33 -14s14 -20.333 14 -33v-258c27.333 29.333 55.666 51.666 84.999 66.999s62.666 23 99.999 23c36.667 0 69 -8.66699 97 -26
c26.667 -17.333 47.167 -41 61.5 -71s21.5 -63.333 21.5 -100v-284c0 -12.667 -4.66699 -23.5 -14 -32.5s-20.333 -13.5 -33 -13.5s-23.5 4.5 -32.5 13.5s-13.5 19.833 -13.5 32.5v274c0 80.667 -36.333 121 -109 121c-32 0 -60.833 -8 -86.5 -24s-51.167 -39.667 -76.5 -71
v-300c0 -12.667 -4.66699 -23.5 -14 -32.5s-20.333 -13.5 -33 -13.5s-23.5 4.5 -32.5 13.5z" />
    <glyph glyph-name="i" unicode="i" horiz-adv-x="249" 
d="M85.5 628.5c-10.333 10.333 -15.5 22.5 -15.5 36.5v4c0 14 5.16699 26.167 15.5 36.5s22.5 15.5 36.5 15.5h6c14 0 26.167 -5.16699 36.5 -15.5s15.5 -22.5 15.5 -36.5v-4c0 -14 -5.16699 -26.167 -15.5 -36.5s-22.5 -15.5 -36.5 -15.5h-6
c-14 0 -26.167 5.16699 -36.5 15.5zM91.5 7.5c-9 9 -13.5 19.833 -13.5 32.5v429c0 12.667 4.5 23.667 13.5 33s19.833 14 32.5 14c13.333 0 24.5 -4.5 33.5 -13.5s13.5 -20.167 13.5 -33.5v-429c0 -12.667 -4.66699 -23.5 -14 -32.5s-20.333 -13.5 -33 -13.5
s-23.5 4.5 -32.5 13.5z" />
    <glyph glyph-name="j" unicode="j" horiz-adv-x="254" 
d="M90.5 628.5c-10.333 10.333 -15.5 22.5 -15.5 36.5v4c0 14 5.16699 26.167 15.5 36.5s22.5 15.5 36.5 15.5h6c14 0 26.167 -5.16699 36.5 -15.5s15.5 -22.5 15.5 -36.5v-4c0 -14 -5.16699 -26.167 -15.5 -36.5s-22.5 -15.5 -36.5 -15.5h-6
c-14 0 -26.167 5.16699 -36.5 15.5zM-19 -232c-8.66699 2.66699 -15.335 7.33301 -20.002 14s-7 14.334 -7 23.001c0 10 3.83301 19 11.5 27s16.834 12 27.501 12l12 -2h3c4 -0.666992 9 -1 15 -1c22 0 37.5 4 46.5 12s13.5 23.333 13.5 46v569c0 12.667 4.5 23.667 13.5 33
s19.833 14 32.5 14c13.333 0 24.5 -4.5 33.5 -13.5s13.5 -20.167 13.5 -33.5v-571c0 -44.667 -11.167 -78.834 -33.5 -102.501s-55.166 -35.5 -98.499 -35.5c-24 0 -45 3 -63 9z" />
    <glyph glyph-name="k" unicode="k" horiz-adv-x="545" 
d="M91.5 7.5c-9 9 -13.501 19.833 -13.501 32.5v649c0 12.667 4.5 23.667 13.5 33s19.833 14 32.5 14s23.667 -4.66699 33 -14s14 -20.333 14 -33v-407l236 219c10.667 8.66699 21 13 31 13c14.667 0 25.834 -4 33.501 -12s11.5 -19 11.5 -33
c0 -10.667 -5.66699 -22.334 -17 -35.001l-144 -128l181 -239c6.66699 -10 10 -19.333 10 -28c0 -13.333 -4.5 -24.166 -13.5 -32.499s-20.167 -12.5 -33.5 -12.5c-6.66699 0 -13.5 1.66699 -20.5 5s-12.833 8 -17.5 14l-171 234l-86 -78v-129
c0 -12.667 -4.66699 -23.5 -14 -32.5s-20.333 -13.5 -33 -13.5s-23.5 4.5 -32.5 13.5z" />
    <glyph glyph-name="l" unicode="l" horiz-adv-x="249" 
d="M91.5 7.5c-9 9 -13.5 19.833 -13.5 32.5v649c0 12.667 4.5 23.667 13.5 33s19.833 14 32.5 14c13.333 0 24.5 -4.5 33.5 -13.5s13.5 -20.167 13.5 -33.5v-649c0 -12.667 -4.66699 -23.5 -14 -32.5s-20.333 -13.5 -33 -13.5s-23.5 4.5 -32.5 13.5z" />
    <glyph glyph-name="m" unicode="m" horiz-adv-x="918" 
d="M826.5 422c12.333 -29.333 18.498 -60.667 18.498 -94v-288c0 -12.667 -4.66699 -23.5 -14 -32.5s-20.333 -13.5 -33 -13.5s-23.5 4.5 -32.5 13.5s-13.5 19.833 -13.5 32.5v270c0 44.667 -7.83301 76.667 -23.5 96s-41.5 29 -77.5 29c-32 0 -59 -8.16699 -81 -24.5
s-42.667 -39.833 -62 -70.5v-300c0 -12.667 -4.66699 -23.5 -14 -32.5s-20.333 -13.5 -33 -13.5s-23.5 4.5 -32.5 13.5s-13.5 19.833 -13.5 32.5v270c0 44.667 -7.83301 76.667 -23.5 96s-41.5 29 -77.5 29c-32 0 -59 -8.16699 -81 -24.5s-42.667 -39.833 -62 -70.5v-300
c0 -12.667 -4.66699 -23.5 -14 -32.5s-20.333 -13.5 -33 -13.5s-23.5 4.5 -32.5 13.5s-13.5 19.833 -13.5 32.5v429c0 12.667 4.5 23.667 13.5 33s19.833 14 32.5 14s23.667 -4.66699 33 -14s14 -20.333 14 -33v-37c20.667 28 44.334 49.833 71.001 65.5
s59.334 23.5 98.001 23.5c36 0 67.5 -9.5 94.5 -28.5s46.5 -43.5 58.5 -73.5c41.333 68 102.666 102 183.999 102c38.667 0 70.334 -9.33301 95.001 -28c24 -18 42.167 -41.667 54.5 -71z" />
    <glyph glyph-name="n" unicode="n" horiz-adv-x="609" 
d="M91.5 7.5c-9 9 -13.498 19.834 -13.498 32.501v429c0 12.667 4.5 23.667 13.5 33s19.833 14 32.5 14s23.667 -4.66699 33 -14s14 -20.333 14 -33v-38c27.333 29.333 55.666 51.666 84.999 66.999s62.666 23 99.999 23c36.667 0 69 -8.66699 97 -26
c26.667 -17.333 47.167 -41 61.5 -71s21.5 -63.333 21.5 -100v-284c0 -12.667 -4.66699 -23.5 -14 -32.5s-20.333 -13.5 -33 -13.5s-23.5 4.5 -32.5 13.5s-13.5 19.833 -13.5 32.5v274c0 80.667 -36.333 121 -109 121c-32 0 -60.833 -8 -86.5 -24s-51.167 -39.667 -76.5 -71
v-300c0 -12.667 -4.66699 -23.5 -14 -32.5s-20.333 -13.5 -33 -13.5s-23.5 4.5 -32.5 13.5z" />
    <glyph glyph-name="o" unicode="o" horiz-adv-x="608" 
d="M169 22c-38.667 22.667 -68.667 54.333 -90 95s-32 86.667 -32 138c0 52 10.667 98.333 32 139s51.5 72 90.5 94s83.833 33 134.5 33s95.334 -11 134.001 -33c39.333 -22.667 69.666 -54.167 90.999 -94.5s32 -86.5 32 -138.5s-10.667 -98 -32 -138
c-22 -41.333 -52.5 -73 -91.5 -95s-83.5 -33 -133.5 -33c-51.333 0 -96.333 11 -135 33zM383 92.999c26 13.333 46.667 33.833 62 61.5s23 61.5 23 101.5c0 42 -8 76 -24 102c-14.667 25.333 -34.167 44.666 -58.5 57.999s-51.5 20 -81.5 20
c-27.333 0 -53.666 -6 -78.999 -18c-26 -13.333 -46.667 -33.666 -62 -60.999s-23 -61 -23 -101c0 -42.667 8 -77 24 -103c14.667 -26 34.167 -45.667 58.5 -59s51.5 -20 81.5 -20c27.333 0 53.666 6.33301 78.999 19z" />
    <glyph glyph-name="p" unicode="p" horiz-adv-x="631" 
d="M91.5 -222c-9 9.33301 -13.499 20.332 -13.499 32.999v659c0 12.667 4.5 23.5 13.5 32.5s19.833 13.5 32.5 13.5s23.667 -4.5 33 -13.5s14 -19.833 14 -32.5v-24c48 50 104.667 75 170 75c43.333 0 82.666 -10.333 117.999 -31
c38.667 -21.333 69.167 -52.666 91.5 -93.999s33.5 -88.333 33.5 -141c0 -54.667 -11.333 -101.667 -34 -141c-22.667 -40 -52.5 -70.833 -89.5 -92.5s-76.833 -32.5 -119.5 -32.5c-65.333 0 -122 25 -170 75v-253c0 -13.333 -4.5 -24.5 -13.5 -33.5
s-20.167 -13.5 -33.5 -13.5c-12.667 0 -23.5 4.66699 -32.5 14zM447.501 123.499c29 31.667 43.5 75.5 43.5 131.5s-14.5 99.833 -43.5 131.5s-68.833 47.5 -119.5 47.5c-29.333 0 -57.5 -6.66699 -84.5 -20s-51.167 -31.333 -72.5 -54v-210
c21.333 -22.667 45.5 -40.667 72.5 -54s55.167 -20 84.5 -20c50.667 0 90.5 15.833 119.5 47.5z" />
    <glyph glyph-name="q" unicode="q" horiz-adv-x="631" 
d="M474 -222.5c-9.33301 9 -14.001 20.167 -14.001 33.5v253c-48 -50 -104.667 -75 -170 -75c-40.667 0 -79.667 10.667 -117 32c-38.667 21.333 -69.334 52.5 -92.001 93.5s-34 87.833 -34 140.5c0 54 11.667 101.333 35 142c22.667 40 52.334 70.667 89.001 92
s76.334 32 119.001 32c65.333 0 122 -25 170 -75v24c0 12.667 4.66699 23.5 14 32.5s20.333 13.5 33 13.5s23.5 -4.5 32.5 -13.5s13.5 -19.833 13.5 -32.5v-659c0 -12.667 -4.5 -23.667 -13.5 -33s-19.833 -14 -32.5 -14s-23.667 4.5 -33 13.5zM387.499 96
c27 13.333 51.167 31.333 72.5 54v210c-21.333 22.667 -45.5 40.667 -72.5 54s-55.167 20 -84.5 20c-50.667 0 -90.5 -15.833 -119.5 -47.5s-43.5 -75.5 -43.5 -131.5s14.5 -99.833 43.5 -131.5s68.833 -47.5 119.5 -47.5c29.333 0 57.5 6.66699 84.5 20z" />
    <glyph glyph-name="r" unicode="r" horiz-adv-x="383" 
d="M91.5 7.5c-9 9 -13.502 19.833 -13.502 32.5v429c0 12.667 4.5 23.667 13.5 33s19.833 14 32.5 14s23.667 -4.66699 33 -14s14 -20.333 14 -33v-40c46 61.333 98 92 156 92h5c12.667 0 23.334 -4.5 32.001 -13.5s13 -19.833 13 -32.5s-4.5 -23.167 -13.5 -31.5
s-20.167 -12.5 -33.5 -12.5h-5c-31.333 0 -60.166 -7.5 -86.499 -22.5s-48.833 -36.5 -67.5 -64.5v-304c0 -12.667 -4.66699 -23.5 -14 -32.5s-20.333 -13.5 -33 -13.5s-23.5 4.5 -32.5 13.5z" />
    <glyph glyph-name="s" unicode="s" horiz-adv-x="480" 
d="M61 34c-11.333 8 -16.9961 19.3359 -16.9961 34.0029c0 10.667 3.83301 20.167 11.5 28.5s17.167 12.5 28.5 12.5c6.66699 0 12.667 -1.33301 18 -4c22.667 -10 44.667 -17.5 66 -22.5s44.666 -7.5 69.999 -7.5c73.333 0 110 23.333 110 70c0 14.667 -8 26 -24 34
c-16.667 8 -44.667 17 -84 27c-38.667 8.66699 -71 18.334 -97 29.001c-28.667 10.667 -51.667 26.667 -69 48s-26 47.666 -26 78.999c0 47.333 17.333 85.666 52 114.999s82.667 44 144 44c53.333 0 101.666 -8.33301 144.999 -25
c9.33301 -2.66699 16.666 -7.66699 21.999 -15s8 -15.333 8 -24c0 -10.667 -4 -20.167 -12 -28.5s-17.667 -12.5 -29 -12.5l-13 2c-40 12 -78 18 -114 18c-34.667 0 -62.334 -6.33301 -83.001 -19s-31 -29.334 -31 -50.001c0 -19.333 9 -33.666 27 -42.999
c19.333 -8.66699 48.333 -17.667 87 -27c36 -9.33301 68 -19 96 -29c27.333 -10.667 49.333 -26.834 66 -48.501s25 -48.834 25 -81.501c0 -43.333 -17.333 -79 -52 -107s-82 -42 -142 -42c-66 0 -127 15 -183 45z" />
    <glyph glyph-name="t" unicode="t" horiz-adv-x="382" 
d="M351 69c7.33301 -7.33301 10.999 -16 10.999 -26c0 -15.333 -8 -27.333 -24 -36c-26 -12 -53.667 -18 -83 -18c-98 0 -147 44.333 -147 133v304h-50c-12.667 0 -22.5 3.5 -29.5 10.5s-10.5 16.833 -10.5 29.5s3.5 22.5 10.5 29.5s16.833 10.5 29.5 10.5h50v71
c0 15.333 4.16699 27 12.5 35s19.833 12 34.5 12s26 -4.16699 34 -12.5s12 -19.833 12 -34.5v-71h112c11.333 0 20.833 -3.83301 28.5 -11.5s11.5 -17.167 11.5 -28.5c0 -10.667 -3.83301 -20 -11.5 -28s-17.167 -12 -28.5 -12h-112v-296c0 -23.333 5.33301 -39 16 -47
s26.667 -12 48 -12c14 0 27.333 2 40 6c1.33301 0 2.33301 0.333008 3 1c6.66699 1.33301 12.334 2 17.001 2c10 0 18.667 -3.66699 26 -11z" />
    <glyph glyph-name="u" unicode="u" horiz-adv-x="609" 
d="M157 15c-26.667 17.333 -47.335 40.999 -62.002 70.999s-22 63.333 -22 100v284c0 12.667 4.66699 23.5 14 32.5s20.333 13.5 33 13.5s23.5 -4.5 32.5 -13.5s13.5 -19.833 13.5 -32.5v-274c0 -80.667 36.333 -121 109 -121c32 0 60.833 8 86.5 24s51.167 39.667 76.5 71
v300c0 12.667 4.66699 23.5 14 32.5s20.333 13.5 33 13.5s23.5 -4.5 32.5 -13.5s13.5 -19.833 13.5 -32.5v-429c0 -12.667 -4.5 -23.667 -13.5 -33s-19.833 -14 -32.5 -14s-23.667 4.66699 -33 14s-14 20.333 -14 33v38c-27.333 -29.333 -55.666 -51.666 -84.999 -66.999
s-62.666 -23 -99.999 -23c-36 0 -68 8.66699 -96 26z" />
    <glyph glyph-name="v" unicode="v" horiz-adv-x="530" 
d="M226.5 4.5c-10.333 7 -17.833 16.167 -22.5 27.5l-174 416c-3.33301 8.66699 -5 15.667 -5 21c0 12.667 4.5 23.667 13.5 33s19.833 14 32.5 14c8.66699 0 17 -2.5 25 -7.5s13.667 -11.5 17 -19.5l144 -366c2 -4.66699 4.66699 -7 8 -7s6 2.33301 8 7l144 366
c3.33301 8 9 14.5 17 19.5s16.333 7.5 25 7.5c12.667 0 23.5 -4.66699 32.5 -14s13.5 -20.333 13.5 -33c0 -5.33301 -1.66699 -12.333 -5 -21l-174 -416c-4.66699 -11.333 -12.167 -20.5 -22.5 -27.5s-21.5 -10.5 -33.5 -10.5h-10c-12 0 -23.167 3.5 -33.5 10.5z" />
    <glyph glyph-name="w" unicode="w" horiz-adv-x="792" 
d="M194.5 6c-11 8 -18.498 18.333 -22.498 31l-142 416c-2 6 -3 11.667 -3 17c0 12.667 4.5 23.5 13.5 32.5s19.833 13.5 32.5 13.5c10 0 18.833 -2.5 26.5 -7.5s12.834 -11.833 15.501 -20.5l109 -358c2 -5.33301 4.33301 -8 7 -8s5 2.66699 7 8l108 349
c3.33301 11.333 9.66602 20.333 18.999 27s19.666 10 30.999 10s21.666 -3.33301 30.999 -10s15.666 -15.667 18.999 -27l108 -349c2 -5.33301 4.33301 -8 7 -8s5 2.66699 7 8l109 358c2.66699 8.66699 7.83398 15.5 15.501 20.5s16.5 7.5 26.5 7.5
c12.667 0 23.5 -4.5 32.5 -13.5s13.5 -19.833 13.5 -32.5c0 -5.33301 -1 -11 -3 -17l-142 -416c-4 -12.667 -11.5 -23 -22.5 -31s-23.167 -12 -36.5 -12s-25.5 4 -36.5 12s-18.833 18.667 -23.5 32l-98 305c-2 5.33301 -4.33301 8 -7 8s-5 -2.66699 -7 -8l-98 -305
c-4.66699 -13.333 -12.5 -24 -23.5 -32s-23.167 -12 -36.5 -12s-25.5 4 -36.5 12z" />
    </font>
</defs>
</svg>
